Hotel.Transsilvanien.2.2015.German.AC3MD.1080p.WEB-DL.x264-XDD

Seit Graf Dracula (Stimme im Original: Adam Sandler) seine Regel gelockert hat, nach der ausschließlich Monster in dem von ihm geführten Hotel Transsilvanien willkommen sind, strömen auch immer mehr menschliche Gäste in die schaurige Herberge. Doch während sich damit geschäftlich alles zum Besseren entwickelt zu haben scheint, hat Drac privat ganz andere Sorgen. So deutet alles darauf hin, dass sich die Blutsauger-Seite seines halbvampirischen Enkels Dennis nicht manifestiert. Und da Dracs Tochter Mavis (Selena Gomez) mit ihrem menschlichen Ehemann Johnny (Andy Samberg) gerade dessen Verwandschaft besucht, liegt es am Großvater selbst, mithilfe seiner Freunde Frank (Kevin James), Murray (Keegan-Michael Key), Wayne (Steve Buscemi) und Griffin (David Spade) das Monster aus seinem kleinen Enkel herauszukitzeln. Doch als wäre das alles noch nicht Aufregung genug, kündigt auch noch Dracs äußerst traditionsbewusster Vater Vlad (Mel Brooks) kurzfristig seinen Besuch an. Und der kann so gar nichts mit der liberalen Einstellung seines Sohnes zur Menschenwelt anfangen…

Genre: Animation
Laufzeit: 89 Min.
Sprache/n: Deutsch
Video Stream: WEB-DL
Audio Stream: Mic
Video Codec: MPEG-4 H.264 / AVC
Format: MKV
Größe: 2500 MB
Parts: 3

NFO

Code:

Video: AVC, 1920×1024, 23.976 fps, 3800 Kbps
Audio: AC-3, 48.0 KHz, 2 channels, 192 Kbps

MEDIAINFO

Code:

General
Unique ID                                : 253429673663622490305581954111987623746 (0xBEA8C79C6B1D2826816D0B734AFDA742)
Complete name                            : XDDH0TEL2WEB1O8PM1CDHJSDJHNJDFHJK/FDJKHGBDFGHKHABGFHGBK/xdd-h0tel2-web-1o8p-m1c.mkv
Format                                  : Matroska
Format version                          : Version 4 / Version 2
File size                                : 2.50 GiB
Duration                                : 01:29:48
Overall bit rate                        : 3 991 Kbps
Encoded date                            : UTC 2015-12-22 09:08:46
Writing application                      : mkvmerge v7.0.0 (‘Where We Going’) 64bit built on Jun  9 2014 15:16:27
Writing library                          : libebml v1.3.0 + libmatroska v1.4.1
_STATISTICS_WRITING_APP                  : mkvmerge v7.0.0 (‘Where We Going’) 64bit built on Jun  9 2014 15:16:27
_STATISTICS_WRITING_DATE_UTC            : 2015-12-22 09:08:46
_STATISTICS_TAGS                        : BPS DURATION NUMBER_OF_FRAMES NUMBER_OF_BYTES
DURATION                                : 01:29:48.925000000
NUMBER_OF_FRAMES                        : 129205
NUMBER_OF_BYTES                          : 2558817267

Video
ID                                      : 1
Format                                  : AVC
Format/Info                              : Advanced Video Codec
Format profile                          : High@L4.1
Format settings, CABAC                  : Yes
Format settings, ReFrames                : 4 frames
Codec ID                                : V_MPEG4/ISO/AVC
Duration                                : 01:29:48
Bit rate                                : 3 800 Kbps
Width                                    : 1 920 pixels
Height                                  : 1 024 pixels
Display aspect ratio                    : 1.85:1
Frame rate mode                          : Constant
Frame rate                              : 23.976 fps
Color space                              : YUV
Chroma subsampling                      : 4:2:0
Bit depth                                : 8 bits
Scan type                                : Progressive
Bits/(Pixel*Frame)                      : 0.081
Stream size                              : 2.33 GiB (93%)
Writing library                          : x264 core 130 r2273 b3065e6
Encoding settings                        : cabac=1 / ref=4 / deblock=1:-1:-1 / analyse=0x3:0x113 / me=umh / subme=8 / psy=1 / psy_rd=1.00:0.10 / mixed_ref=1 / me_range=16 / chroma_me=1 / trellis=1 / 8x8dct=1 / cqm=0 / deadzone=21,11 / fast_pskip=1 / chroma_qp_offset=-3 / threads=12 / lookahead_threads=2 / sliced_threads=0 / nr=0 / decimate=1 / interlaced=0 / bluray_compat=0 / constrained_intra=0 / bframes=3 / b_pyramid=2 / b_adapt=2 / b_bias=0 / direct=3 / weightb=1 / open_gop=0 / weightp=2 / keyint=250 / keyint_min=23 / scenecut=40 / intra_refresh=0 / rc_lookahead=50 / rc=2pass / mbtree=1 / bitrate=3800 / ratetol=1.0 / qcomp=0.60 / qpmin=0 / qpmax=69 / qpstep=4 / cplxblur=20.0 / qblur=0.5 / ip_ratio=1.40 / aq=1:1.00
Default                                  : Yes
Forced                                  : No

Audio
ID                                      : 2
Format                                  : AC-3
Format/Info                              : Audio Coding 3
Mode extension                          : CM (complete main)
Format settings, Endianness              : Big
Codec ID                                : A_AC3
Duration                                : 01:29:48
Bit rate mode                            : Constant
Bit rate                                : 192 Kbps
Channel(s)                              : 2 channels
Channel positions                        : Front: L R
Sampling rate                            : 48.0 KHz
Bit depth                                : 16 bits
Compression mode                        : Lossy
Delay relative to video                  : 462ms
Stream size                              : 123 MiB (5%)
Language                                : German
Default                                  : Yes
Forced                                  : Yes

Menu
00:00:00.000                            : en:1
00:05:45.000                            : en:2
00:09:16.000                            : en:3
00:13:07.000                            : en:4
00:19:26.000                            : en:5
00:22:40.000                            : en:6
00:30:02.000                            : en:7
00:36:09.000                            : en:8
00:39:57.000                            : en:9
00:45:50.000                            : en:10
00:51:18.000                            : en:11
00:56:50.000                            : en:12
01:03:57.000                            : en:13
01:08:27.000                            : en:14
01:13:24.000                            : en:15
01:18:30.000                            : en:16

SAMPLE

Uploaded.net

Share-online.biz