Skin Traffik 2015 BDRip AC3 German XviD-LoC

Beschreibung:

Der Londoner Auftragskiller Bradley (Gary Daniels) geht seinem Handwerk schon lange nach, was ihn abgestumpft hat. Doch als durch seine Hand versehentlich ein unschuldiger Mensch sein Leben verliert, ändert sich das und sein Gewissen meldet sich. Er bricht aus seiner Bahn aus und begibt sich auf die Straßen einer knallharten Gangster-Welt. Der Anblick des Schreckens gibt ihm die Kraft, seine eigenen inneren Dämonen zu bekämpfen. So beginnt für ihn eine gefährliche Mission: Er will ein junges Mädchen aus den Fängen eines brutalen Menschenhändlerrings befreien. Ganz bewusst stürzt sich Bradley in die Tiefen dieser kranken Unterwelt, in der die Damen der Nacht scheinbar nicht jung genug sein können, die Polizei kaum etwas ausrichten kann und eine mysteriöse Agentur namens „The Executive“ seltsame Dinge unternimmt. Dabei stößt er auf das verworrene Netz einer großangelegten Verschwörung und lässt sich auf ein gefährliches Spiel ein, bei dem er niemandem vertrauen kann.

Info:

Sprache(n) : Deutsch

Genre : Action

Dauer : 97min.

Audioformat : Dolby Digital 5.1 @ 448kbps

Videoformat : BD/XviD

Parts : 11

Größe : 1540MB

Notes : –

Code:

Originalname………: Skin Traffik (2015)
Audio Format………: AC3
Bitrate…………..: 448kbps
Hz……………….: 48000
Channels………….: DD 5.1
Video Format………: XviD/.avi
Video Bitrate……..: 2268k
Resolution………..: 720×304
FPS………………: 24
Genre…………….: Action
Dauer…………….: 97min.
IMDb Rating……….: 5,9
Movie Information….: http://www.imdb.com/title/tt3120960/
Posted by…………: LoC
Posted on…………: 07.12.2015
Videosource……….: Bluray (Thx!!)
Audiosource……….: –
Notes…………….: –
 
Der Londoner Auftragskiller Bradley (Gary Daniels) geht seinem Handwerk schon lange nach, was ihn abgestumpft hat. Doch als durch seine Hand versehentlich ein unschuldiger Mensch sein Leben verliert, õndert sich das und sein Gewissen meldet sich. Er bricht aus seiner Bahn aus und begibt sich auf die Stra▀en einer knallharten Gangster-Welt. Der Anblick des Schreckens gibt ihm die Kraft, seine eigenen inneren Dõmonen zu bekõmpfen. So beginnt f³r ihn eine gefõhrliche Mission: Er will ein junges Mõdchen aus den Fõngen eines brutalen Menschenhõndlerrings befreien. Ganz bewusst st³rzt sich Bradley in die Tiefen dieser kranken Unterwelt, in der die Damen der Nacht scheinbar nicht jung genug sein k÷nnen, die Polizei kaum etwas ausrichten kann und eine mysteri÷se Agentur namens äThe Executiveô seltsame Dinge unternimmt. Dabei st÷▀t er auf das verworrene Netz einer gro▀angelegten Verschw÷rung und lõsst sich auf ein gefõhrliches Spiel ein, bei dem er niemandem vertrauen kann.

Mediainfo :

Code:

General
Complete name                            : Skin.Traffik.2015.BDRip.AC3.German.XviD-LoC\LoC-skin traffik.avi
Format                                  : AVI
Format/Info                              : Audio Video Interleave
Format profile                          : OpenDML
File size                                : 1.54 GiB
Duration                                : 1h 37mn
Overall bit rate                        : 2 268 Kbps
Writing application                      : Lavf51.12.1

Video
ID                                      : 0
Format                                  : xvid
Codec ID                                : xvid
Duration                                : 1h 37mn
Bit rate                                : 1 808 Kbps
Width                                    : 720 pixels
Height                                  : 304 pixels
Display aspect ratio                    : 2.35:1
Frame rate                              : 23.976 fps
Bits/(Pixel*Frame)                      : 0.345
Stream size                              : 1.23 GiB (80%)

Audio
ID                                      : 1
Format                                  : AC-3
Format/Info                              : Audio Coding 3
Mode extension                          : CM (complete main)
Format settings, Endianness              : Big
Codec ID                                : 2000
Duration                                : 1h 37mn
Bit rate mode                            : Constant
Bit rate                                : 448 Kbps
Channel(s)                              : 6 channels
Channel positions                        : Front: L C R, Side: L R, LFE
Sampling rate                            : 48.0 KHz
Frame rate                              : 31.250 fps (1536 spf)
Bit depth                                : 16 bits
Compression mode                        : Lossy
Stream size                              : 312 MiB (20%)
Alignment                                : Aligned on interleaves
Interleave, duration                    : 32 ms (0.77 video frame)
Interleave, preload duration            : 32 ms

Passwort: Kein Passwort

Download:

Share-Links.biz

Share-Links.biz

Ein DANKE wäre nett & hält den Beitrag für jeden sichtbar