Joko gegen Klaas – Das Duell um die Welt
Staffel 4 – Episode 2 (Ausgabe 10) – HDTV RIP 720p

Zitat:

Joko gegen Klaas – Das Duell um die Welt ist eine deutsche Spielshow, die zum ersten Mal am 21. Juli 2012 auf dem Privatsender ProSieben ausgestrahlt wurde. Die Sendung ist ein Wettstreit zwischen Joachim Winterscheidt und Klaas Heufer-Umlauf, die zunächst in verschiedene Länder reisen und dort Aufgaben lösen müssen und danach im Studio eine weitere zum jeweiligen Land passende Aufgabe gestellt bekommen.

Folge vom 31. Oktober 2015

| Größe: ~ 2.66 GB | Dauer: ~ 2:39 Stunden | Sprache: deutsch | Hoster: ul |

1280 x 720p HDTV Rip / ProSieben HD (Ohne Werbung/Gewinnspiel)
Video: AVC/x264 720p
Audio: AC3 384kbps

MediaInfo

Code:

General
Unique ID                                : 52780916373446879197111554505312375029 (0x27B53C178001EAE41EE96F84039110F5)
Complete name                            : S04E02_JGK_720p.mkv
Format                                  : Matroska
Format version                          : Version 4 / Version 2
File size                                : 2.66 GiB
Duration                                : 2h 38mn
Overall bit rate                        : 2 400 Kbps
Writing application                      : Lavf56.25.101
Writing library                          : Lavf56.25.101

Video
ID                                      : 1
Format                                  : AVC
Format/Info                              : Advanced Video Codec
Format profile                          : High@L3.1
Format settings, CABAC                  : Yes
Format settings, ReFrames                : 4 frames
Codec ID                                : V_MPEG4/ISO/AVC
Duration                                : 2h 38mn
Bit rate                                : 1 968 Kbps
Width                                    : 1 280 pixels
Height                                  : 720 pixels
Display aspect ratio                    : 16:9
Frame rate mode                          : Constant
Frame rate                              : 25.000 fps
Color space                              : YUV
Chroma subsampling                      : 4:2:0
Bit depth                                : 8 bits
Scan type                                : Progressive
Bits/(Pixel*Frame)                      : 0.085
Stream size                              : 2.18 GiB (82%)
Writing library                          : x264 core 146
Encoding settings                        : cabac=1 / ref=3 / deblock=1:0:0 / analyse=0x3:0x113 / me=hex / subme=7 / psy=1 / psy_rd=1.00:0.00 / mixed_ref=1 / me_range=16 / chroma_me=1 / trellis=1 / 8x8dct=1 / cqm=0 / deadzone=21,11 / fast_pskip=1 / chroma_qp_offset=-2 / threads=12 / lookahead_threads=2 / sliced_threads=0 / nr=0 / decimate=1 / interlaced=0 / bluray_compat=0 / constrained_intra=0 / bframes=3 / b_pyramid=2 / b_adapt=1 / b_bias=0 / direct=1 / weightb=1 / open_gop=0 / weightp=2 / keyint=250 / keyint_min=25 / scenecut=40 / intra_refresh=0 / rc_lookahead=40 / rc=crf / mbtree=1 / crf=23.0 / qcomp=0.60 / qpmin=0 / qpmax=69 / qpstep=4 / ip_ratio=1.40 / aq=1:1.00
Default                                  : No
Forced                                  : No

Audio
ID                                      : 2
Format                                  : AC-3
Format/Info                              : Audio Coding 3
Mode extension                          : CM (complete main)
Format settings, Endianness              : Big
Codec ID                                : A_AC3
Duration                                : 2h 38mn
Bit rate mode                            : Constant
Bit rate                                : 384 Kbps
Channel(s)                              : 2 channels
Channel positions                        : Front: L R
Sampling rate                            : 48.0 KHz
Bit depth                                : 16 bits
Compression mode                        : Lossy
Stream size                              : 435 MiB (16%)
Language                                : German
Default                                  : Yes
Forced                                  : No

Passwort: LoaDay
Parts: 6 (~ 500MB pro Part)

Uploaded

Download