The Nightmare (2015)

Genre: Dokumentation, Horror
Sprache: Deutsch
Dauer: 01 Std. 30 Min. 25 Sek.
Video: avi, BDRip, 720×304, 1000 Kbps
Audio: mp3, 2 channels, 128 Kbps
Untertitel: German Forced
Größe: 735.56 MB
NFO:

Code:

General
Format                      : AVI
Format/Info                : Audio Video Interleave
File size                  : 736 MiB
Duration                    : 1h 30mn
Overall bit rate            : 1 137 Kbps
Writing library            : VirtualDub build 35576/release

Video
ID                          : 0
Format                      : MPEG-4 Visual
Format profile              : Advanced Simple@L5
Format settings, BVOP      : 2
Format settings, QPel      : No
Format settings, GMC        : No warppoints
Format settings, Matrix    : Default (H.263)
Muxing mode                : Packed bitstream
Codec ID                    : XVID
Codec ID/Hint              : XviD
Duration                    : 1h 30mn
Bit rate                    : 1 000 Kbps
Width                      : 720 pixels
Height                      : 304 pixels
Display aspect ratio        : 2.35:1
Frame rate                  : 23.976 fps
Color space                : YUV
Chroma subsampling          : 4:2:0
Bit depth                  : 8 bits
Scan type                  : Progressive
Compression mode            : Lossy
Bits/(Pixel*Frame)          : 0.191
Stream size                : 647 MiB (88%)
Writing library            : XviD 73

Audio
ID                          : 1
Format                      : MPEG Audio
Format version              : Version 1
Format profile              : Layer 3
Mode                        : Joint stereo
Codec ID                    : 55
Codec ID/Hint              : MP3
Duration                    : 1h 30mn
Bit rate mode              : Constant
Bit rate                    : 128 Kbps
Channel(s)                  : 2 channels
Sampling rate              : 44.1 KHz
Compression mode            : Lossy
Stream size                : 82.6 MiB (11%)
Alignment                  : Split accross interleaves
Interleave, duration        : 42 ms (1.00 video frame)
Interleave, preload duratio : 501 ms

FSK ab 16 freigegeben
Regisseur Rodney Asher leidet selbst an Schlaflähmung und wirft in seinem Horror-Doku-Mix einen genaueren Blick auf das Phänomen, an welchem ungefähr sechs Prozent der Weltbevölkerung leiden. Bei der Schlafparalyse wacht der Betroffene auf und kann sich nicht rühren; er steckt in einer Art Schlaf-Wach-Zustand. Während Arme und Beine wie gelähmt sind und er kein Wort herausbringen kann, beschleunigt sich die Atmung und das Herz beginnt zu rasen. Und dann sehen viele eine Gruselgestalt oder andere Schreckensvisionen. Vor ihren Augen spielt sich ein wahrer Albtraum ab. Wenn es zu Ende ist, erwachen sie verstört und verängstigt – mit einer brennenden Frage auf der Zunge: Was war das? Etwa Reales, etwas Übersinnliches oder doch nur ein böser Traum?

Download part 1 (uploaded)
Download part 2 (uploaded)