The Walking Dead S06 1080p WEB-DL DD5 1 H 264-Cyphanix

Die US-Serie “The Walking Dead” ist eine Adaption der gleichnamigen Comicbuchreihe von Robert Kirkman. Darin geht es um eine Gruppe von Menschen, die nach der Apokalypse als letzte Überlebende in einer Welt bestehen muss, die von Zombies bevölkert wird. Im Mittelpunkt der Serie steht der Polizist Rick Grimes, der für sich und seine Mitstreiter eine sichere Zuflucht sucht.

MKV | AC3 CBR | 2.6 GB | eng |

HOSTER:

UPLOADED
SHARE-ONLINE

nfo

General
Unique ID : 228390374969633057366718509523909463534 (0xABD262DF13B4C0789E719C558FF3CDEE)
Complete name : The.Walking.Dead.S06E01.1080p.WEB-DL.DD5.1.H.264-Cyphanix.mkv
Format : Matroska
Format version : Version 2
File size : 2.50 GiB
Duration : 1h 4mn
Overall bit rate : 5 535 Kbps
Encoded date : UTC 2015-10-12 08:20:53
Writing application : mkvmerge v5.8.0 (‘No Sleep / Pillow’) built on Sep 2 2012 15:37:04
Writing library : libebml v1.2.3 + libmatroska v1.3.0

Video
ID : 1
Format : AVC
Format/Info : Advanced Video Codec
Format profile : High@L4.0
Format settings, CABAC : Yes
Format settings, ReFrames : 4 frames
Codec ID : V_MPEG4/ISO/AVC
Duration : 1h 4mn
Bit rate : 5 041 Kbps
Width : 1 916 pixels
Height : 1 076 pixels
Display aspect ratio : 16:9
Frame rate mode : Constant
Frame rate : 23.976 fps
Color space : YUV
Chroma subsampling : 4:2:0
Bit depth : 8 bits
Scan type : Progressive
Bits/(Pixel*Frame) : 0.102
Stream size : 2.28 GiB (91%)
Language : English
Default : Yes
Forced : No
Color primaries : BT.709
Transfer characteristics : BT.709
Matrix coefficients : BT.709

Audio
ID : 2
Format : AC-3
Format/Info : Audio Coding 3
Mode extension : CM (complete main)
Format settings, Endianness : Big
Codec ID : A_AC3
Duration : 1h 4mn
Bit rate mode : Constant
Bit rate : 384 Kbps
Channel(s) : 6 channels
Channel positions : Front: L C R, Side: L R, LFE
Sampling rate : 48.0 KHz
Bit depth : 16 bits
Compression mode : Lossy
Stream size : 178 MiB (7%)
Language : English
Default : Yes
Forced : No

Text #1
ID : 3
Format : UTF-8
Codec ID : S_TEXT/UTF8
Codec ID/Info : UTF-8 Plain Text
Title : SDH-Removed
Language : English
Default : Yes
Forced : No

Text #2
ID : 4
Format : UTF-8
Codec ID : S_TEXT/UTF8
Codec ID/Info : UTF-8 Plain Text
Title : SDH
Language : English
Default : No
Forced : No

DOWNLOAD

The Walking Dead S06E01 1080p WEB-DL DD5 1 H 264-Cyphanix

http://share-links.biz/_fd4q5xne2a2/…S06E01_1080p_W

The Walking Dead S06E02 1080p WEB-DL DD5 1 H 264-Cyphanix

http://share-links.biz/_z38q5xn0fpxe…S06E02_1080p_W

The Walking Dead S06E03 1080p WEB-DL DD5 1 H264-Cyphanix

http://share-links.biz/_66bq5xn1cssm…S06E03_1080p_W