The Americans
Staffel 1 komplett

Zitat:

Anfang der 1980er Jahre: Die USA und Russland befinden sich im Kalten Krieg. Der frisch gewählte US-Präsident Ronald Reagan befeuert die Propaganda gegen das „Reich des Bösen“. In einem Vorort von Washington leben die vermeintlichen Durchschnittsbürger Phillip und Elizabeth Jennings, die ein Geheimnis wahren: Sie sind KGB-Agenten, deren Ehe zur Tarnung arrangiert worden war. Nicht einmal die Kinder sind eingeweiht. Das Paar ist sich über die Jahre emotional näher gekommen. Insbesondere Phillip plagen inzwischen Zweifel an seiner Arbeit. Er hat sich mit dem ‚american way of life‘ angefreundet. Dass sich der neue Nachbar Stan als FBI-Agent entpuppt, macht die Situation noch komplizierter.

IMDB | Wiki
Hoster: Ul.to, Share-Online.biz
Größe: ~ 3,1 GB/Folge
Laufzeit: ~ 45 min/Folge
Sprache: Deutsch & Englisch
Untertitel: –

Info

Code:

General
Unique ID                  : 215484092313557320852314072629967561084 (0xA21CBA01F8A181D18B4DF5A9ECB3A17C)
Complete name              : tvs-americans-dd51-ded-dl-18p-bd-x264-101.mkv
Format                      : Matroska
Format version              : Version 4 / Version 2
File size                  : 5.15 GiB
Duration                    : 1h 6mn
Overall bit rate            : 11.1 Mbps
Encoded date                : UTC 2014-02-09 07:21:19
Writing application        : mkvmerge v6.7.0 (‘Back to the Ground’) 32bit built on Jan  8 2014 15:03:17
Writing library            : libebml v1.3.0 + libmatroska v1.4.1

Video
ID                          : 1
Format                      : AVC
Format/Info                : Advanced Video Codec
Format profile              : High@L4
Format settings, CABAC      : Yes
Format settings, ReFrames  : 4 frames
Codec ID                    : V_MPEG4/ISO/AVC
Duration                    : 1h 6mn
Bit rate                    : 9 789 Kbps
Width                      : 1 920 pixels
Height                      : 1 080 pixels
Display aspect ratio        : 16:9
Frame rate mode            : Constant
Frame rate                  : 25.000 fps
Original frame rate        : 23.976 fps
Color space                : YUV
Chroma subsampling          : 4:2:0
Bit depth                  : 8 bits
Scan type                  : Progressive
Bits/(Pixel*Frame)          : 0.189
Stream size                : 4.63 GiB (90%)
Writing library            : x264 core 142 r2389 956c8d8
Encoding settings          : cabac=1 / ref=4 / deblock=1:0:0 / analyse=0x3:0x133 / me=umh / subme=7 / psy=1 / psy_rd=1.00:0.00 / mixed_ref=1 / me_range=16 / chroma_me=1 / trellis=1 / 8x8dct=1 / cqm=0 / deadzone=21,11 / fast_pskip=0 / chroma_qp_offset=-2 / threads=18 / lookahead_threads=3 / sliced_threads=0 / nr=0 / decimate=1 / interlaced=0 / bluray_compat=0 / constrained_intra=0 / bframes=3 / b_pyramid=2 / b_adapt=1 / b_bias=0 / direct=3 / weightb=1 / open_gop=0 / weightp=2 / keyint=250 / keyint_min=23 / scenecut=40 / intra_refresh=0 / rc_lookahead=40 / rc=2pass / mbtree=1 / bitrate=9789 / ratetol=1.0 / qcomp=0.60 / qpmin=0 / qpmax=69 / qpstep=4 / cplxblur=20.0 / qblur=0.5 / ip_ratio=1.40 / aq=1:1.00
Default                    : Yes
Forced                      : No

Audio #1
ID                          : 2
Format                      : AC-3
Format/Info                : Audio Coding 3
Mode extension              : CM (complete main)
Format settings, Endianness : Big
Codec ID                    : A_AC3
Duration                    : 1h 6mn
Bit rate mode              : Constant
Bit rate                    : 448 Kbps
Channel(s)                  : 6 channels
Channel positions          : Front: L C R, Side: L R, LFE
Sampling rate              : 48.0 KHz
Compression mode            : Lossy
Stream size                : 213 MiB (4%)
Language                    : German
Default                    : Yes
Forced                      : No

Audio #2
ID                          : 3
Format                      : AC-3
Format/Info                : Audio Coding 3
Mode extension              : CM (complete main)
Format settings, Endianness : Big
Codec ID                    : A_AC3
Duration                    : 1h 6mn
Bit rate mode              : Constant
Bit rate                    : 448 Kbps
Channel(s)                  : 6 channels
Channel positions          : Front: L C R, Side: L R, LFE
Sampling rate              : 48.0 KHz
Compression mode            : Lossy
Stream size                : 213 MiB (4%)
Language                    : English
Default                    : No
Forced                      : No

The.Americans.2013.S01.German.DD51.Dubbed.DL.1080p .BD.x264-TVS

mehr zu dieser Serie:
Staffel 1: 480p | 720p | 1080p
Staffel 2: 480p | 720p | 1080p