Hitman: Agent 47 (2015)

Screenshot

Genre: Action
Sprache: Deutsch
Dauer: 01 Std. 36 Min. 16 Sek.
Video: avi, BDRip, 720×304, 1005 Kbps
Audio: mp3, Mic, 2 channels, 128 Kbps
Untertitel: Keinen
Notizen: –
Größe: 786.72 MB
NFO:

Code:

General
Complete name              : Hitman Agent 47 2015 German MD BDRip Xvid – NightCity
Format                      : AVI
Format/Info                : Audio Video Interleave
File size                  : 787 MiB
Duration                    : 1h 36mn
Overall bit rate            : 1 142 Kbps
Writing application        : VirtualDubMod 1.5.10.2 (build 2540/release)
Writing library            : VirtualDub build 35576/release

Video
ID                          : 0
Format                      : MPEG-4 Visual
Format profile              : Advanced Simple@L5
Format settings, BVOP      : 2
Format settings, QPel      : No
Format settings, GMC        : No warppoints
Format settings, Matrix    : Default (H.263)
Muxing mode                : Packed bitstream
Codec ID                    : XVID
Codec ID/Hint              : XviD
Duration                    : 1h 36mn
Bit rate                    : 1 005 Kbps
Width                      : 720 pixels
Height                      : 304 pixels
Display aspect ratio        : 2.35:1
Frame rate                  : 23.976 fps
Color space                : YUV
Chroma subsampling          : 4:2:0
Bit depth                  : 8 bits
Scan type                  : Progressive
Compression mode            : Lossy
Bits/(Pixel*Frame)          : 0.192
Stream size                : 692 MiB (88%)
Writing library            : XviD 73

Audio
ID                          : 1
Format                      : MPEG Audio
Format version              : Version 1
Format profile              : Layer 3
Mode                        : Joint stereo
Mode extension              : MS Stereo
Codec ID                    : 55
Codec ID/Hint              : MP3
Duration                    : 1h 36mn
Bit rate mode              : Constant
Bit rate                    : 128 Kbps
Channel(s)                  : 2 channels
Sampling rate              : 44.1 KHz
Compression mode            : Lossy
Stream size                : 87.9 MiB (11%)
Alignment                  : Split accross interleaves
Interleave, duration        : 42 ms (1.00 video frame)
Interleave, preload duratio : 501 ms

FSK ab 16 freigegeben
Agent 47 (Rupert Friend) ist ein unbarmherziger Profikiller, der nach jahrelanger Forschung und 46 vorangegangenen Klonversuchen in einem Genlabor herangezüchtet wurde, um mit gesteigerter Stärke, Intelligenz, Schnelligkeit und Ausdauer als perfekte Tötungsmaschine zu fungieren. Sein neuester Auftrag führt ihn nach Berlin, wo er die junge Katia (Hannah Ware) ins Visier nimmt, die nach einem verschollenen Mann sucht und über eine übernatürlich geschärfte Wahrnehmung verfügt. Plötzlich taucht der mysteriöse John Smith (Zachary Quinto) auf, der Katia vor 47 beschützt und mit ihr in die amerikanische Botschaft flüchtet. Doch auch dort sind sie nur scheinbar sicher. Schließlich haben auch noch der skrupellose Geschäftsmann Le Clerq (Thomas Kretschmann) und sein ominöser, fast allmächtiger Konzern ihre Hände im tödlichen Spiel…

Download (uploaded)