Ein Schrei in den Wäldern
Ein.Schrei.in.den.Waeldern.2004.German.Xvid.AAC.TV Rip.MP4-WoC

Beschreibung:

Eigentlich wollte Kommissar Karsten Skov seinen letzten Arbeitstag auf der Polizeiwache feiern, bevor er in seine dänische Heimat zurückkehrt. Doch dann überschlagen sich die Ereignisse: Eine Bank wird überfallen, fast zeitgleich wird Karsten zu einem Mordfall gerufen. Eine Frau wurde in ihrem Haus am Waldrand mit einer Axt erschlagen! Der einzige Zeuge: ein zwölfjähriger Junge, der behauptet, er habe den psychisch kranken Erkki in der Nähe der Leiche gesehen. Als Karsten erfährt, dass Errki in dieser Nacht aus der psychiatrischen Anstalt ausgebrochen ist, scheint der Fall klar.
Doch dann nimmt der Bankräuber Erkki als Geisel und flüchtet mit ihm in die Wälder. In einer schwülen Mittsommernacht macht sich Karsten auf die Suche nach dem Killer…

Release Nfo:

Code:

General
Format                                  : MPEG-4
Format profile                          : Base Media / Version 2
Codec ID                                : mp42
File size                                : 1.49 GiB
Duration                                : 1h 34mn
Overall bit rate mode                    : Variable
Overall bit rate                        : 2 245 Kbps
Encoded date                            : UTC 2015-10-05 13:45:05
Tagged date                              : UTC 2015-10-05 13:45:05

Video
ID                                      : 201
Format                                  : AVC
Format/Info                              : Advanced Video Codec
Format profile                          : High@L3.2
Format settings, CABAC                  : Yes
Format settings, ReFrames                : 4 frames
Codec ID                                : avc1
Codec ID/Info                            : Advanced Video Coding
Duration                                : 1h 34mn
Bit rate                                : 2 089 Kbps
Maximum bit rate                        : 14.2 Mbps
Width                                    : 1 280 pixels
Height                                  : 720 pixels
Display aspect ratio                    : 16:9
Frame rate mode                          : Constant
Frame rate                              : 50.000 fps
Standard                                : PAL
Color space                              : YUV
Chroma subsampling                      : 4:2:0
Bit depth                                : 8 bits
Scan type                                : Progressive
Bits/(Pixel*Frame)                      : 0.045
Stream size                              : 1.39 GiB (93%)
Encoded date                            : UTC 2015-10-05 13:45:05
Tagged date                              : UTC 2015-10-05 13:45:13
Color range                              : Limited
Color primaries                          : BT.709
Transfer characteristics                : BT.709
Matrix coefficients                      : BT.709

Audio
ID                                      : 101
Format                                  : AAC
Format/Info                              : Advanced Audio Codec
Format profile                          : LC
Codec ID                                : 40
Duration                                : 1h 31mn
Bit rate mode                            : Variable
Bit rate                                : 156 Kbps
Maximum bit rate                        : 213 Kbps
Channel(s)                              : 2 channels
Channel positions                        : Front: L R
Sampling rate                            : 48.0 KHz
Compression mode                        : Lossy
Stream size                              : 102 MiB (7%)
Encoded date                            : UTC 2015-10-05 13:45:12
Tagged date                              : UTC 2015-10-05 13:45:13

Other #1
ID                                      : 2
Type                                    : Object description
Format                                  : System
Codec ID                                : 1
Duration                                : 1s 0ms
Encoded date                            : UTC 2015-10-05 13:45:13
Tagged date                              : UTC 2015-10-05 13:45:13

Other #2
ID                                      : 1
Type                                    : Scene description
Format                                  : System Core
Codec ID                                : 2
Duration                                : 1s 0ms
Encoded date                            : UTC 2015-10-05 13:45:13
Tagged date                              : UTC 2015-10-05 13:45:13

Genre: Thriller
Laufzeit:
Sprache/n:
Video Stream: TV-RIP
Audio Stream: Stereo
Video Codec: MPEG-4 DivX / Xvid
Imdb-Link:

Download

Hoster: Uploaded.net, Share-online.biz | Größe: 1525.18 MB | Parts: 15 Dateien
Uploaded.net

Share-online.biz