Tracklist:

1. The Unforgiven
2. One
3. Mama Said
4. Fade To Black
5. Welcome Home (Sanitarium)
6. Bleeding Me
7. Nothing Else Matters
8. To Live Is To Die
9. The Outlaw Torn

Log:

Exact Audio Copy V0.99 prebeta 4 from 23. January 2012

EAC extraction logfile from 16. August 2012, 11:10

Metallica / Best Ballads

Used drive : Optiarc DVD RW AD-7173A Adapter: 3 ID: 1

Read mode : Secure
Utilize accurate stream : Yes
Defeat audio cache : Yes
Make use of C2 pointers : No

Read offset correction : 48
Overread into Lead-In and Lead-Out : No
Fill up missing offset samples with silence : Yes
Delete leading and trailing silent blocks : No
Null samples used in CRC calculations : Yes
Used interface : Installed external ASPI interface
Gap handling : Appended to previous track

Used output format : Internal WAV Routines
Sample format : 44.100 Hz; 16 Bit; Stereo

TOC of the extracted CD

Track | Start | Length | Start sector | End sector
———————————————————
1 | 0:00.30 | 6:26.44 | 30 | 29023
2 | 6:26.74 | 7:26.00 | 29024 | 62473
3 | 13:52.74 | 5:19.73 | 62474 | 86471
4 | 19:12.72 | 6:54.74 | 86472 | 117595
5 | 26:07.71 | 6:26.21 | 117596 | 146566
6 | 32:34.17 | 8:19.06 | 146567 | 183997
7 | 40:53.23 | 6:28.55 | 183998 | 213152
8 | 47:22.03 | 9:49.04 | 213153 | 257331
9 | 57:11.07 | 9:52.61 | 257332 | 301792

Track 1

Filename D:\Works\CD-Rips\Metallica – 1997 – Best Ballads\Metallica – 1997 – Best Ballads\01. Metallica – The Unforgiven.wav

Pre-gap length 0:00:02.30

Peak level 57.9 %
Track quality 100.0 %
Test CRC 1A1A5EBB
Copy CRC 1A1A5EBB
Track not present in AccurateRip database
Copy OK

Track 2

Filename D:\Works\CD-Rips\Metallica – 1997 – Best Ballads\Metallica – 1997 – Best Ballads\02. Metallica – One.wav

Peak level 74.7 %
Track quality 100.0 %
Test CRC 0035A4C0
Copy CRC 0035A4C0
Track not present in AccurateRip database
Copy OK

Track 3

Filename D:\Works\CD-Rips\Metallica – 1997 – Best Ballads\Metallica – 1997 – Best Ballads\03. Metallica – Mama Said.wav

Peak level 83.4 %
Track quality 100.0 %
Test CRC 0E984F11
Copy CRC 0E984F11
Track not present in AccurateRip database
Copy OK

Track 4

Filename D:\Works\CD-Rips\Metallica – 1997 – Best Ballads\Metallica – 1997 – Best Ballads\04. Metallica – Fade To Black.wav

Peak level 61.0 %
Track quality 100.0 %
Test CRC 7D7BDB7C
Copy CRC 7D7BDB7C
Track not present in AccurateRip database
Copy OK

Track 5

Filename D:\Works\CD-Rips\Metallica – 1997 – Best Ballads\Metallica – 1997 – Best Ballads\05. Metallica – Welcome Home (Sanitarium).wav

Peak level 48.0 %
Track quality 100.0 %
Test CRC 6036FBC0
Copy CRC 6036FBC0
Track not present in AccurateRip database
Copy OK

Track 6

Filename D:\Works\CD-Rips\Metallica – 1997 – Best Ballads\Metallica – 1997 – Best Ballads\06. Metallica – Bleeding Me.wav

Peak level 70.0 %
Track quality 99.9 %
Test CRC 03DD3460
Copy CRC 03DD3460
Track not present in AccurateRip database
Copy OK

Track 7

Filename D:\Works\CD-Rips\Metallica – 1997 – Best Ballads\Metallica – 1997 – Best Ballads\07. Metallica – Nothing Else Matters.wav

Peak level 70.0 %
Track quality 100.0 %
Test CRC 5A23C1BC
Copy CRC 5A23C1BC
Track not present in AccurateRip database
Copy OK

Track 8

Filename D:\Works\CD-Rips\Metallica – 1997 – Best Ballads\Metallica – 1997 – Best Ballads\08. Metallica – To Live Is To Die.wav

Peak level 64.6 %
Track quality 99.9 %
Test CRC 6A92FB8B
Copy CRC 6A92FB8B
Track not present in AccurateRip database
Copy OK

Track 9

Filename D:\Works\CD-Rips\Metallica – 1997 – Best Ballads\Metallica – 1997 – Best Ballads\09. Metallica – The Outlaw Torn.wav

Peak level 70.8 %
Track quality 99.9 %
Test CRC 7C419E09
Copy CRC 7C419E09
Track not present in AccurateRip database
Copy OK

None of the tracks are present in the AccurateRip database

No errors occurred

End of status report

Cue:

REM GENRE Rock
REM DATE 1998
REM DISCID 880FB709
REM COMMENT “ExactAudioCopy v0.99pb4”
PERFORMER “Metallica”
TITLE “Best Ballads”
FILE “Metallica – 1997 – Best Ballads\01. Metallica – The Unforgiven.wav” WAVE
TRACK 01 AUDIO
TITLE “The Unforgiven”
PERFORMER “Metallica”
PREGAP 00:00:30
INDEX 01 00:00:00
FILE “Metallica – 1997 – Best Ballads\02. Metallica – One.wav” WAVE
TRACK 02 AUDIO
TITLE “One”
PERFORMER “Metallica”
INDEX 01 00:00:00
FILE “Metallica – 1997 – Best Ballads\03. Metallica – Mama Said.wav” WAVE
TRACK 03 AUDIO
TITLE “Mama Said”
PERFORMER “Metallica”
INDEX 01 00:00:00
FILE “Metallica – 1997 – Best Ballads\04. Metallica – Fade To Black.wav” WAVE
TRACK 04 AUDIO
TITLE “Fade To Black”
PERFORMER “Metallica”
INDEX 01 00:00:00
FILE “Metallica – 1997 – Best Ballads\05. Metallica – Welcome Home (Sanitarium).wav” WAVE
TRACK 05 AUDIO
TITLE “Welcome Home (Sanitarium)”
PERFORMER “Metallica”
INDEX 01 00:00:00
FILE “Metallica – 1997 – Best Ballads\06. Metallica – Bleeding Me.wav” WAVE
TRACK 06 AUDIO
TITLE “Bleeding Me”
PERFORMER “Metallica”
INDEX 01 00:00:00
FILE “Metallica – 1997 – Best Ballads\07. Metallica – Nothing Else Matters.wav” WAVE
TRACK 07 AUDIO
TITLE “Nothing Else Matters”
PERFORMER “Metallica”
INDEX 01 00:00:00
FILE “Metallica – 1997 – Best Ballads\08. Metallica – To Live Is To Die.wav” WAVE
TRACK 08 AUDIO
TITLE “To Live Is To Die”
PERFORMER “Metallica”
INDEX 01 00:00:00
FILE “Metallica – 1997 – Best Ballads\09. Metallica – The Outlaw Torn.wav” WAVE
TRACK 09 AUDIO
TITLE “The Outlaw Torn”
PERFORMER “Metallica”
INDEX 01 00:00:00

Format: FLAC
Bitrate: lossless
Größe: 408 MB

Download

Share-Online, Uploaded

http://www.relink.us/f/d8b7d24e2352e63c1b6c0f686e521f

Nur 1x gepackt, kein Passwort, Mirror kompatibel