Tracklist:

01. If the Devil Made Whiskey
02. Trouble at Home
03. Thirty Days
04. Hard Times
05. Have You Heard ?
06. Eyesight to the Blind
07. Evenin’
08. Nowhere Fast
09. Checkin’ Up on My Baby
10. I Had a Dream
11. Sundown

Log:

Exact Audio Copy V1.0 beta 3 from 29. August 2011

EAC extraction logfile from 25. May 2012, 23:06

Gary Moore / Close as you get (ER20112-2)

Used drive : PLEXTOR DVDR PX-860A Adapter: 4 ID: 0

Read mode : Secure
Utilize accurate stream : Yes
Defeat audio cache : Yes
Make use of C2 pointers : No

Read offset correction : 96
Overread into Lead-In and Lead-Out : No
Fill up missing offset samples with silence : Yes
Delete leading and trailing silent blocks : No
Null samples used in CRC calculations : Yes
Used interface : Installed external ASPI interface

Used output format : User Defined Encoder
Selected bitrate : 1024 kBit/s
Quality : High
Add ID3 tag : No
Command line compressor : C:\Program Files\Exact Audio Copy\FLAC.EXE
Additional command line options : -V -8 -T “Date=%year%” -T “Genre=%genre%” %source%

TOC of the extracted CD

Track | Start | Length | Start sector | End sector
———————————————————
1 | 0:00.00 | 2:48.09 | 0 | 12608
2 | 2:48.09 | 5:00.04 | 12609 | 35112
3 | 7:48.13 | 3:16.13 | 35113 | 49825
4 | 11:04.26 | 3:04.41 | 49826 | 63666
5 | 14:08.67 | 5:49.34 | 63667 | 89875
6 | 19:58.26 | 2:34.35 | 89876 | 101460
7 | 22:32.61 | 5:47.55 | 101461 | 127540
8 | 28:20.41 | 3:38.47 | 127541 | 143937
9 | 31:59.13 | 5:24.04 | 143938 | 168241
10 | 37:23.17 | 7:16.63 | 168242 | 201004
11 | 44:40.05 | 7:08.09 | 201005 | 233113

Range status and errors

Selected range

Filename J:\MUSIC\Gary Moore – Close as you get (ER20112-2).wav

Peak level 100.0 %
Extraction speed 6.9 X
Range quality 99.9 %
Test CRC 517DC600
Copy CRC 517DC600
Copy OK

No errors occurred

AccurateRip summary

Track 1 cannot be verified as accurate (confidence 6) [25FD4B19], AccurateRip returned [AB37E700] (AR v2)
Track 2 cannot be verified as accurate (confidence 7) [125BDDD2], AccurateRip returned [E854F9A7] (AR v2)
Track 3 cannot be verified as accurate (confidence 6) [45EC454F], AccurateRip returned [1FE1B2BE] (AR v2)
Track 4 cannot be verified as accurate (confidence 6) [17277853], AccurateRip returned [CD7DCD9A] (AR v2)
Track 5 cannot be verified as accurate (confidence 7) [E860ECD9], AccurateRip returned [1E3C40B6] (AR v2)
Track 6 cannot be verified as accurate (confidence 6) [F6746EC4], AccurateRip returned [105916B7] (AR v2)
Track 7 cannot be verified as accurate (confidence 7) [06E4D314], AccurateRip returned [8020240B] (AR v2)
Track 8 cannot be verified as accurate (confidence 6) [46539959], AccurateRip returned [7821BFC9] (AR v2)
Track 9 cannot be verified as accurate (confidence 6) [B1284EDE], AccurateRip returned [D666F010] (AR v2)
Track 10 cannot be verified as accurate (confidence 6) [2FE177AF], AccurateRip returned [7DD2FCE1] (AR v2)
Track 11 cannot be verified as accurate (confidence 7) [7F56DF1B], AccurateRip returned [C2891E95] (AR v2)

No tracks could be verified as accurate
You may have a different pressing from the one(s) in the database

End of status report

==== Log checksum 53B5BC69FF6635D3BE33A5FF3F814C62EACC815358755A34A5 6623F092D7A90C ====

Cue:

REM GENRE Rock
REM DATE 2007
REM DISCID 7A0C240B
REM COMMENT “ExactAudioCopy v1.0b3”
PERFORMER “Gary Moore”
TITLE “Close as you get (ER20112-2)”
FILE “Gary Moore – Close as you get (ER20112-2).flac” WAVE
TRACK 01 AUDIO
TITLE “If the devil made whisky”
PERFORMER “Gary Moore”
ISRC GBCBR0700047
INDEX 01 00:00:00
TRACK 02 AUDIO
TITLE “Trouble at home”
PERFORMER “Gary Moore”
ISRC GBCBR0700048
INDEX 00 02:46:32
INDEX 01 02:48:09
TRACK 03 AUDIO
TITLE “Thirty days”
PERFORMER “Gary Moore”
ISRC GBCBR0700049
INDEX 00 07:46:73
INDEX 01 07:48:13
TRACK 04 AUDIO
TITLE “Hard times”
PERFORMER “Gary Moore”
ISRC GBCBR0700050
INDEX 01 11:04:26
TRACK 05 AUDIO
TITLE “Have you heard”
PERFORMER “Gary Moore”
ISRC GBCBR0700051
INDEX 00 14:07:11
INDEX 01 14:08:67
TRACK 06 AUDIO
TITLE “Eyesight to the blind”
PERFORMER “Gary Moore”
ISRC GBCBR0700052
INDEX 01 19:58:26
TRACK 07 AUDIO
TITLE “Evenin'”
PERFORMER “Gary Moore”
ISRC GBCBR0700053
INDEX 00 22:30:34
INDEX 01 22:32:61
TRACK 08 AUDIO
TITLE “Nowhere fast”
PERFORMER “Gary Moore”
ISRC GBCBR0700054
INDEX 01 28:20:41
TRACK 09 AUDIO
TITLE “Checkin’ up on my baby”
PERFORMER “Gary Moore”
ISRC GBCBR0700055
INDEX 00 31:58:47
INDEX 01 31:59:13
TRACK 10 AUDIO
TITLE “I had a dream”
PERFORMER “Gary Moore”
ISRC GBCBR0700056
INDEX 00 37:22:32
INDEX 01 37:23:17
TRACK 11 AUDIO
TITLE “Sundown”
PERFORMER “Gary Moore”
ISRC GBCBR0700057
INDEX 00 44:38:21
INDEX 01 44:40:05

Format: FLAC
Bitrate: lossless
Größe: 306 MB

Download

Share-Online, Uploaded

http://www.relink.us/f/3ca692fccb23b8712895eb8c37d06f

Nur 1x gepackt, kein Passwort, Mirror kompatibel