Cartel Land 2015 DOKU AC3 WEBRip x264-FuN

Im Süden von Texas gehen die Männer von Tim “Nailer” Fowley auf Bürgerwehrpatrouille gegen Drogendealer und illegale Einwanderer, nachdem die heimischen Grenzsoldaten das Bewachen der Grenze praktisch aufgegeben haben. Im Norden von Mexiko wollen die Bürger normaler Dörfer sich den Terror durch die Narco-Milizen nicht länger bieten lassen und treten unter Leitung des Kinderarztes Dr. Jose Mireles in den bewaffneten Widerstand. Beide Männer haben nicht viel gemeinsam, einiges zu verlieren, und bekämpfen das gleiche Ziel.

Vom Unwesen der Drogenkartelle und korrupter Cops, deren Macht sich längst nicht mehr auf Mexiko beschränkt, sowie den heldenhaften Widerstand einzelner Bürger dagegen ein trauriges Lied singt diese Kinodokumentation aus mexikanisch-amerikanischer Koproduktion, die bereits auf Festivals für Aufsehen sorgte.

Genre: Dokumentation, Action, Drama
Laufzeit: 100 Min.
Sprache: Deutsch
Größe: 1300,38 MB
Parts: 2

Share-Online.biz

Download

Uploaded.net

Download

Nfo

Code:

General
Complete name                            : Cartel.Land.2015.DOKU.AC3.WEBRip.x264-FuN/funxd.mp4
Format                                  : MPEG-4
Format profile                          : Base Media
Codec ID                                : isom
File size                                : 1.27 GiB
Duration                                : 1h 40mn
Overall bit rate                        : 1 815 Kbps
Encoded date                            : UTC 2015-10-13 19:00:02
Tagged date                              : UTC 2015-10-13 19:00:02

Video
ID                                      : 1
Format                                  : AVC
Format/Info                              : Advanced Video Codec
Format profile                          : High@L3.0
Format settings, CABAC                  : Yes
Format settings, ReFrames                : 4 frames
Codec ID                                : avc1
Codec ID/Info                            : Advanced Video Coding
Duration                                : 1h 40mn
Bit rate                                : 1 450 Kbps
Maximum bit rate                        : 8 227 Kbps
Width                                    : 944 pixels
Height                                  : 400 pixels
Display aspect ratio                    : 2.35:1
Frame rate mode                          : Variable
Frame rate                              : 23.976 fps
Minimum frame rate                      : 23.810 fps
Maximum frame rate                      : 24.390 fps
Color space                              : YUV
Chroma subsampling                      : 4:2:0
Bit depth                                : 8 bits
Scan type                                : Progressive
Bits/(Pixel*Frame)                      : 0.160
Stream size                              : 1 023 MiB (79%)
Writing library                          : x264 core 142 r2479 dd79a61
Encoding settings                        : cabac=1 / ref=3 / deblock=1:0:0 / analyse=0x3:0x113 / me=hex / subme=7 / psy=1 / psy_rd=1.00:0.00 / mixed_ref=1 / me_range=16 / chroma_me=1 / trellis=1 / 8x8dct=1 / cqm=0 / deadzone=21,11 / fast_pskip=1 / chroma_qp_offset=-2 / threads=6 / lookahead_threads=1 / sliced_threads=0 / nr=0 / decimate=1 / interlaced=0 / bluray_compat=0 / constrained_intra=0 / bframes=3 / b_pyramid=2 / b_adapt=1 / b_bias=0 / direct=1 / weightb=1 / open_gop=0 / weightp=2 / keyint=240 / keyint_min=24 / scenecut=40 / intra_refresh=0 / rc_lookahead=40 / rc=abr / mbtree=1 / bitrate=1450 / ratetol=1.0 / qcomp=0.60 / qpmin=0 / qpmax=69 / qpstep=4 / ip_ratio=1.40 / aq=1:1.00
Encoded date                            : UTC 2036-02-06 06:28:16
Tagged date                              : UTC 2015-10-13 19:03:40
Color primaries                          : BT.709-5, BT.1361, IEC 61966-2-4, SMPTE RP177
Transfer characteristics                : BT.709-5, BT.1361
Matrix coefficients                      : BT.709-5, BT.1361, IEC 61966-2-4 709, SMPTE RP177

Audio
ID                                      : 2
Format                                  : AC-3
Format/Info                              : Audio Coding 3
Mode extension                          : CM (complete main)
Format settings, Endianness              : Big
Codec ID                                : ac-3
Duration                                : 1h 40mn
Bit rate mode                            : Constant
Bit rate                                : 384 Kbps
Channel(s)                              : 6 channels
Channel positions                        : Front: L C R, Side: L R, LFE
Sampling rate                            : 48.0 KHz
Bit depth                                : 16 bits
Compression mode                        : Lossy
Delay relative to video                  : -12s 450ms
Stream size                              : 275 MiB (21%)
Encoded date                            : UTC 2015-10-13 19:02:56
Tagged date                              : UTC 2015-10-13 19:03:40