Pixels.2015.German.AC3.Dubbed.DL.720p.BluRay.x264-XDD

Prasident Cooper steht unter Druck. Aliens haben eine Sonde mit Arcade-Spielen aus den 1980er Jahren abgefangen und die Botschaft missverstanden, fordern die Erde zum Duell und attackieren mit pixeligen Figuren aus Spielen wie Centipede oder Pac-Man. Hilflos wendet sich Cooper an seinen Jugendfreund Brenner, einen früheren Meister vieler Arcade-Spiele. Zusammen mit einem alten Kumpel, einem früheren Rivalen und einer Offizierin zeigt Brenner den Aliens, aus welchem Holz irdische Gamer geschnitzt sind.

Nach dem Vorbild von “Ghostbusters – Die Geisterjager” treten die “Kindsköpfe” Adam Sandler und Kevin James (als amerikanischer Prasident!) sowie Josh Gad und Peter Dinklage an, um die Welt in einem abgefahrenen Effektspektakel voller schräger Gags vor bekannten Videospielen der Achtzigerjahre zu retten. Es ist der mit Abstand aufwändigste Film in der Karriere der Publikumslieblinge Sandler und James, was sie aber nicht davon abhält, ihren patentierten Jedermann-Humor souverän und gewohnt lässig an den Mann zu bringen.

Genre: Science Fiction
Laufzeit: 106 Min.
Sprache/n: Deutsch, English
Video Stream: BD
Audio Stream: Line
Video Codec: MPEG-4 H.264 / AVC
Format: MKV
Größe: 4690 MB
Parts: 6

NFO

Code:

Video: AVC, 1280×534, 23.976 fps, 4480 Kbps
Audio 1 German: AC-3 , 48.0 KHz, 2 channels, 224 Kbps
Audio 2 English: DTS 5.1, 48.0 KHz, 6 channels, 1509 Kbps

MEDIAINFO

Code:

General
Unique ID                                : 173897585926154389888240285169784330266 (0x82D374F0CA912713B9A9C256F3CA181A)
Complete name                            : XDDPIX72KJ25BDHIBHHBDRIHGRDIGH/xdd-pix-72p.mkv
Format                                  : Matroska
Format version                          : Version 2
File size                                : 4.69 GiB
Duration                                : 01:45:49
Overall bit rate                        : 6 339 Kbps
Encoded date                            : UTC 2015-10-11 06:37:08
Writing application                      : mkvmerge v4.0.0 (‘The Stars were mine’) Jun  6 2010 16:18:42
Writing library                          : libebml v1.0.0 + libmatroska v1.0.0
_STATISTICS_WRITING_APP                  : mkvmerge v7.1.0 (‘Good Love’) 64bit built on Jul 27 2014 13:06:55
_STATISTICS_WRITING_DATE_UTC            : 2015-10-10 06:21:38
_STATISTICS_TAGS                        : BPS DURATION NUMBER_OF_FRAMES NUMBER_OF_BYTES
DURATION                                : 01:36:22.697000000
NUMBER_OF_FRAMES                        : 1511
NUMBER_OF_BYTES                          : 52397

Video
ID                                      : 1
Format                                  : AVC
Format/Info                              : Advanced Video Codec
Format settings, CABAC                  : Yes
Format settings, ReFrames                : 12 frames
Codec ID                                : V_MPEG4/ISO/AVC
Duration                                : 01:45:49
Bit rate                                : 4 480 Kbps
Width                                    : 1 280 pixels
Height                                  : 534 pixels
Display aspect ratio                    : 2.40:1
Frame rate mode                          : Constant
Frame rate                              : 23.976 fps
Color space                              : YUV
Chroma subsampling                      : 4:2:0
Bit depth                                : 8 bits
Scan type                                : Progressive
Bits/(Pixel*Frame)                      : 0.273
Stream size                              : 3.31 GiB (71%)
Writing library                          : x264 core 142 r2431+42 c69a006 tMod [8-bit@all X86_64]
Encoding settings                        : cabac=1 / ref=12 / deblock=1:-3:-3 / analyse=0x3:0x133 / me=umh / subme=11 / psy=1 / fade_compensate=0.00 / psy_rd=1.05:1.00 / mixed_ref=1 / me_range=32 / chroma_me=1 / trellis=2 / 8x8dct=1 / cqm=0 / deadzone=21,11 / fast_pskip=0 / chroma_qp_offset=-4 / threads=12 / lookahead_threads=2 / sliced_threads=0 / nr=0 / decimate=0 / interlaced=0 / bluray_compat=0 / constrained_intra=0 / fgo=0 / bframes=8 / b_pyramid=2 / b_adapt=2 / b_bias=0 / direct=3 / weightb=1 / open_gop=0 / weightp=2 / keyint=240 / keyint_min=23 / scenecut=40 / intra_refresh=0 / rc_lookahead=60 / rc=crf / mbtree=1 / crf=16.0000 / qcomp=0.60 / qpmin=0:0:0 / qpmax=69:69:69 / qpstep=4 / vbv_maxrate=40000 / vbv_bufsize=30000 / crf_max=0.0 / nal_hrd=none / filler=0 / ip_ratio=1.40 / aq=1:1.00 / aq-sensitivity=10.00 / aq-factor=1.00:1.00:1.00 / aq2=0 / aq3=0
Language                                : English
Default                                  : No
Forced                                  : No

Audio #1
ID                                      : 2
Format                                  : AC-3
Format/Info                              : Audio Coding 3
Mode extension                          : CM (complete main)
Format settings, Endianness              : Big
Codec ID                                : A_AC3
Duration                                : 01:45:49
Bit rate mode                            : Constant
Bit rate                                : 224 Kbps
Channel(s)                              : 2 channels
Channel positions                        : Front: L R
Sampling rate                            : 48.0 KHz
Bit depth                                : 16 bits
Compression mode                        : Lossy
Stream size                              : 170 MiB (4%)
Title                                    : German AC3D Line
Language                                : German
Default                                  : Yes
Forced                                  : Yes

Audio #2
ID                                      : 3
Format                                  : DTS
Format/Info                              : Digital Theater Systems
Mode                                    : 16
Format settings, Endianness              : Big
Codec ID                                : A_DTS
Duration                                : 01:45:49
Bit rate mode                            : Constant
Bit rate                                : 1 509 Kbps
Channel(s)                              : 6 channels
Channel positions                        : Front: L C R, Side: L R, LFE
Sampling rate                            : 48.0 KHz
Bit depth                                : 16 bits
Compression mode                        : Lossy
Delay relative to video                  : 11ms
Stream size                              : 1.12 GiB (24%)
Language                                : English
Default                                  : No
Forced                                  : No

Text #1
ID                                      : 4
Format                                  : UTF-8
Codec ID                                : S_TEXT/UTF8
Codec ID/Info                            : UTF-8 Plain Text
Title                                    : Forced
Language                                : English
Default                                  : No
Forced                                  : No

Text #2
ID                                      : 5
Format                                  : UTF-8
Codec ID                                : S_TEXT/UTF8
Codec ID/Info                            : UTF-8 Plain Text
Language                                : English
Default                                  : No
Forced                                  : No

Menu
00:00:00.000                            : en:Chapter 01
00:04:54.043                            : en:Chapter 02
00:10:21.662                            : en:Chapter 03
00:14:51.765                            : en:Chapter 04
00:19:51.815                            : en:Chapter 05
00:26:19.869                            : en:Chapter 06
00:32:57.809                            : en:Chapter 07
00:40:35.474                            : en:Chapter 08
00:47:40.482                            : en:Chapter 09
00:52:33.275                            : en:Chapter 10
00:58:56.074                            : en:Chapter 11
01:05:07.695                            : en:Chapter 12
01:09:23.075                            : en:Chapter 13
01:18:13.021                            : en:Chapter 14
01:27:54.185                            : en:Chapter 15
01:33:53.002                            : en:Chapter 16

SAMPLE


Uploaded.net


Share-online.biz