Tracklist:

CD1:

01. Wake The Sleeper
02. Overload
03. Tears of the World
04. Stealin
05. Book Of Lies
06. Gypsy
07. Look At Yourself
08. What Kind Of God
09. Angels Walk With You
10. Shadow

CD2:

01. July Morning
02. Easy Livin
03. Sunrise
04. Sympathy
05. Lady In Black

Log:

CD 1:

Exact Audio Copy V1.0 beta 2 from 29. April 2011

EAC extraction logfile from 2. October 2011, 12:54

Uriah Heep / Uriah Heep Live In Armenia

Used drive : ATAPI DVD A DH20A3H Adapter: 4 ID: 0

Read mode : Secure
Utilize accurate stream : Yes
Defeat audio cache : Yes
Make use of C2 pointers : No

Read offset correction : 6
Overread into Lead-In and Lead-Out : No
Fill up missing offset samples with silence : Yes
Delete leading and trailing silent blocks : No
Null samples used in CRC calculations : Yes
Used interface : Native Win32 interface for Win NT & 2000

Used output format : User Defined Encoder
Selected bitrate : 768 kBit/s
Quality : High
Add ID3 tag : No
Command line compressor : C:\Program Files\Exact Audio Copy\Flac\flac.exe
Additional command line options : -8 -V %source%

TOC of the extracted CD

Track | Start | Length | Start sector | End sector
———————————————————
1 | 0:00.00 | 4:23.01 | 0 | 19725
2 | 4:23.01 | 5:56.59 | 19726 | 46484
3 | 10:19.60 | 5:37.71 | 46485 | 71830
4 | 15:57.56 | 6:27.51 | 71831 | 100906
5 | 22:25.32 | 4:36.27 | 100907 | 121633
6 | 27:01.59 | 5:32.59 | 121634 | 146592
7 | 32:34.43 | 8:50.10 | 146593 | 186352
8 | 41:24.53 | 7:29.74 | 186353 | 220101
9 | 48:54.52 | 6:40.46 | 220102 | 250147
10 | 55:35.23 | 3:47.68 | 250148 | 267240

Range status and errors

Selected range

Filename E:\Uriah Heep – Uriah Heep Live In Armenia.wav

Peak level 94.2 %
Extraction speed 7.5 X
Range quality 100.0 %
Copy CRC E8F6357E
Copy OK

No errors occurred

AccurateRip summary

Track 1 not present in database
Track 2 not present in database
Track 3 not present in database
Track 4 not present in database
Track 5 not present in database
Track 6 not present in database
Track 7 not present in database
Track 8 not present in database
Track 9 not present in database
Track 10 not present in database

None of the tracks are present in the AccurateRip database

End of status report

CD 2:

Exact Audio Copy V1.0 beta 2 from 29. April 2011

EAC extraction logfile from 2. October 2011, 13:03

Uriah Heep / Live In Armenia Cd2

Used drive : ATAPI DVD A DH20A3H Adapter: 4 ID: 0

Read mode : Secure
Utilize accurate stream : Yes
Defeat audio cache : Yes
Make use of C2 pointers : No

Read offset correction : 6
Overread into Lead-In and Lead-Out : No
Fill up missing offset samples with silence : Yes
Delete leading and trailing silent blocks : No
Null samples used in CRC calculations : Yes
Used interface : Native Win32 interface for Win NT & 2000

Used output format : User Defined Encoder
Selected bitrate : 768 kBit/s
Quality : High
Add ID3 tag : No
Command line compressor : C:\Program Files\Exact Audio Copy\Flac\flac.exe
Additional command line options : -8 -V %source%

TOC of the extracted CD

Track | Start | Length | Start sector | End sector
———————————————————
1 | 0:00.00 | 10:03.24 | 0 | 45248
2 | 10:03.24 | 6:25.56 | 45249 | 74179
3 | 16:29.05 | 5:12.52 | 74180 | 97631
4 | 21:41.57 | 5:28.60 | 97632 | 122291
5 | 27:10.42 | 8:40.21 | 122292 | 161312

Range status and errors

Selected range

Filename E:\Uriah Heep – Live In Armenia Cd2.wav

Peak level 99.6 %
Extraction speed 5.3 X
Range quality 100.0 %
Copy CRC 0E965AE5
Copy OK

No errors occurred

AccurateRip summary

Track 1 not present in database
Track 2 not present in database
Track 3 not present in database
Track 4 not present in database
Track 5 not present in database

None of the tracks are present in the AccurateRip database

End of status report

Cue:

CD 1:

REM DATE 2011
REM DISCID 970DEB0A
REM COMMENT “ExactAudioCopy v1.0b2”
PERFORMER “Uriah Heep”
TITLE “Uriah Heep Live In Armenia”
FILE “Uriah Heep – Uriah Heep Live In Armenia.flac” WAVE
TRACK 01 AUDIO
TITLE “01 Wake The Sleeper”
PERFORMER “Uriah Heep”
INDEX 01 00:00:00
TRACK 02 AUDIO
TITLE “02 Overload”
PERFORMER “Uriah Heep”
INDEX 01 04:23:01
TRACK 03 AUDIO
TITLE “03 Tears of the World”
PERFORMER “Uriah Heep”
INDEX 01 10:19:60
TRACK 04 AUDIO
TITLE “04 Stealin”
PERFORMER “Uriah Heep”
INDEX 01 15:57:56
TRACK 05 AUDIO
TITLE “05 Book Of Lies”
PERFORMER “Uriah Heep”
INDEX 01 22:25:32
TRACK 06 AUDIO
TITLE “06 Gypsy”
PERFORMER “Uriah Heep”
INDEX 01 27:01:59
TRACK 07 AUDIO
TITLE “07 Look At Yourself”
PERFORMER “Uriah Heep”
INDEX 01 32:34:43
TRACK 08 AUDIO
TITLE “08 What Kind Of God”
PERFORMER “Uriah Heep”
INDEX 01 41:24:53
TRACK 09 AUDIO
TITLE “09 Angels Walk With You”
PERFORMER “Uriah Heep”
INDEX 01 48:54:52
TRACK 10 AUDIO
TITLE “10 Shadow”
PERFORMER “Uriah Heep”
INDEX 01 55:35:23

CD 2:

REM DATE 2011
REM DISCID 33086605
REM COMMENT “ExactAudioCopy v1.0b2”
PERFORMER “Uriah Heep”
TITLE “Live In Armenia Cd2”
FILE “Uriah Heep – Live In Armenia Cd2.flac” WAVE
TRACK 01 AUDIO
TITLE “July Morning “
PERFORMER “Uriah Heep”
INDEX 01 00:00:00
TRACK 02 AUDIO
TITLE “Easy Livin “
PERFORMER “Uriah Heep”
INDEX 01 10:03:24
TRACK 03 AUDIO
TITLE “Sunrise “
PERFORMER “Uriah Heep”
INDEX 01 16:29:05
TRACK 04 AUDIO
TITLE “Sympathy “
PERFORMER “Uriah Heep”
INDEX 01 21:41:57
TRACK 05 AUDIO
TITLE “Lady In Black”
PERFORMER “Uriah Heep”
INDEX 01 27:10:42

Format: FLAC
Bitrate: lossless
Größe: 677 MB

Download

Share-Online, Uploaded

Share-Links

http://s2l.biz/6sivmsnp363d

Linkcrypt

http://linkcrypt.ws/dir/8bl88c1jb6m6tlh

Nur 1x gepackt, kein Passwort, Mirror kompatibel