Tracklist:

01. Let There Be Light / Spririts Dancing In The Flesh (7:24)
02. Gypsy Woman (4:23)
03. It’s A Jungle Out There (4:33)
04. Soweto (Africa Libre) (5:08)
05. Choose (4:15)
06. Peace On Earth … Mother Earth … Third Stone From The Sun (4:24)
07. Full Moon (4:34)
08. Who’s That Lady (4:15)
09. Jin-Go-Lo-Ba (4:52)
10. Goodess And Mercy (4:33)

Log:

Exact Audio Copy V1.0 beta 3 from 29. August 2011

Отчёт EAC об извлечении, выполненном 28. марта 2013, 9:42

Santana / Spirits Dancing In The Flesh

Дисковод: SONY CD-RW CRX230ED Adapter: 0 ID: 1

Режим чтения : Достоверность
Использование точного потока : Да
Отключение кэша аудио : Да
Использование указателей C2 : Нет

Коррекция смещения при чтении : 6
Способность читать области Lead-in и Lead-out : Нет
Заполнение пропущенных сэмплов тишиной : Да
Удаление блоков с тишиной в начале и конце : Нет
При вычислениях CRC использовались нулевые сэмплы : Да
Интерфейс : Установленный внешний ASPI-интерфейс

Выходной формат : Внутренние WAV-операции
Формат сэмплов : 44.100 Гц; 16 бит; стерео

TOC извлечённого CD

Трек | Старт | Длительность | Начальный сектор | Конечный сектор
———————————————————————
1 | 0:00.00 | 7:24.22 | 0 | 33321
2 | 7:24.22 | 4:30.05 | 33322 | 53576
3 | 11:54.27 | 4:33.18 | 53577 | 74069
4 | 16:27.45 | 5:07.47 | 74070 | 97141
5 | 21:35.17 | 4:14.50 | 97142 | 116241
6 | 25:49.67 | 4:23.53 | 116242 | 136019
7 | 30:13.45 | 4:33.62 | 136020 | 156556
8 | 34:47.32 | 4:14.38 | 156557 | 175644
9 | 39:01.70 | 4:52.15 | 175645 | 197559
10 | 43:54.10 | 4:32.50 | 197560 | 218009

Характеристики диапазона извлечения и сообщения об ошибках

Выбранный диапазон

Имя файла E:\MusicCD\Torrent\Santana\Santana – Spirits Dancing In The Flesh\Santana – Spirits Dancing In The Flesh.wav

Пиковый уровень 97.0 %
Скорость извлечения 7.5 X
Качество диапазона 100.0 %
CRC теста A2C8D483
CRC копии A2C8D483
Копирование… OK

Ошибок не произошло

AccurateRip: сводка

Трек 1 : извлечено точно (доверие 10) [C870D867] (AR v2)
Трек 2 : извлечено точно (доверие 11) [F68071FF] (AR v2)
Трек 3 : извлечено точно (доверие 11) [9FD2F102] (AR v2)
Трек 4 : извлечено точно (доверие 11) [3D1DE05E] (AR v2)
Трек 5 : извлечено точно (доверие 11) [31390550] (AR v2)
Трек 6 : извлечено точно (доверие 10) [36AD5A98] (AR v2)
Трек 7 : извлечено точно (доверие 10) [18B9CDE0] (AR v2)
Трек 8 : извлечено точно (доверие 10) [A39BF0E6] (AR v2)
Трек 9 : извлечено точно (доверие 10) [3AED116A] (AR v2)
Трек 10 : извлечено точно (доверие 11) [91EAEEEC] (AR v2)

Все треки извлечены точно

Конец отчёта

==== Контрольная сумма отчёта 3BE29FD9FF7D459BD32F302042F82CAF4ED26F1DC9A289AAA9 28D09706998E96 ====

Cue:

REM GENRE Rock
REM DATE 1990
REM DISCID 960B5A0A
REM COMMENT “ExactAudioCopy v1.0b3”
PERFORMER “Santana”
TITLE “Spirits Dancing In The Flesh”
FILE “Santana – Spirits Dancing In The Flesh.flac” WAVE
TRACK 01 AUDIO
TITLE “Let There Be Light – Spirits Dancing In The Flesh”
PERFORMER “Santana”
INDEX 01 00:00:00
TRACK 02 AUDIO
TITLE “Gypsy Woman”
PERFORMER “Santana”
INDEX 01 07:24:22
TRACK 03 AUDIO
TITLE “It’s A Jungle Out There”
PERFORMER “Santana”
INDEX 01 11:54:27
TRACK 04 AUDIO
TITLE “Soweto (Africa Libre)”
PERFORMER “Santana”
INDEX 01 16:27:45
TRACK 05 AUDIO
TITLE “Choose”
PERFORMER “Santana”
INDEX 01 21:35:17
TRACK 06 AUDIO
TITLE “Peace On Earth… Mother Earth… Third Stone From The Sun”
PERFORMER “Santana”
INDEX 01 25:49:67
TRACK 07 AUDIO
TITLE “Full Moon”
PERFORMER “Santana”
INDEX 00 30:11:42
INDEX 01 30:13:45
TRACK 08 AUDIO
TITLE “Who’s That Lady”
PERFORMER “Santana”
INDEX 00 34:43:65
INDEX 01 34:47:32
TRACK 09 AUDIO
TITLE “Jin-Go-Lo-Ba”
PERFORMER “Santana”
INDEX 00 38:59:20
INDEX 01 39:01:70
TRACK 10 AUDIO
TITLE “Goodness And Mercy”
PERFORMER “Santana”
INDEX 00 43:52:15
INDEX 01 43:54:10

Format: FLAC
Bitrate: lossless
Größe: 386 MB

Download

Share-Online, Uploaded

Share-Links

http://s2l.biz/9nq70qnoilk

Linkcrypt

http://linkcrypt.ws/dir/9rd771eug46x1gi

Nur 1x gepackt, kein Passwort, Mirror kompatibel