Tracklist:

1. Eleventh Earl Of Mar 7:45
2. One For The Vine 10:00
3. Your Own Special Way 6:18
4. Wot Gorilla? 3:19
5. All In A Mouse’s Night 6:39
6. Blood On The Rooftops 5:27
7. Unquiet Slumber For The Sleepers… 2:20
8. …In That Quiet Earth 4:52
9. Afterglow 4:14

Log:

Exact Audio Copy V1.0 beta 1 from 15. November 2010

EAC extraction logfile from 4. February 2011, 13:08

Genesis / Wind & Wuthering (CDSCD 4005)

Used drive : TEAC DV-W516GDM Adapter: 0 ID: 1

Read mode : Secure
Utilize accurate stream : Yes
Defeat audio cache : Yes
Make use of C2 pointers : No

Read offset correction : 6
Overread into Lead-In and Lead-Out : No
Fill up missing offset samples with silence : Yes
Delete leading and trailing silent blocks : No
Null samples used in CRC calculations : Yes
Used interface : Native Win32 interface for Win NT & 2000

Used output format : User Defined Encoder
Selected bitrate : 896 kBit/s
Quality : High
Add ID3 tag : No
Command line compressor : C:\Program Files\Exact Audio Copy 1.0\Flac\flac.exe
Additional command line options : -8 -V %s

TOC of the extracted CD

Track | Start | Length | Start sector | End sector
———————————————————
1 | 0:00.00 | 7:45.12 | 0 | 34886
2 | 7:45.12 | 10:00.35 | 34887 | 79921
3 | 17:45.47 | 6:18.53 | 79922 | 108324
4 | 24:04.25 | 3:19.70 | 108325 | 123319
5 | 27:24.20 | 6:39.02 | 123320 | 153246
6 | 34:03.22 | 5:27.63 | 153247 | 177834
7 | 39:31.10 | 2:20.50 | 177835 | 188384
8 | 41:51.60 | 4:52.27 | 188385 | 210311
9 | 46:44.12 | 4:14.63 | 210312 | 229424

Range status and errors

Selected range

Filename C:\Olaf der Weisse\Genesis . 1976 . Wind & Wuthering (CDSCD 4005)\Genesis – Wind & Wuthering (CDSCD 4005).wav

Peak level 100.0 %
Extraction speed 0.1 X
Range quality 99.9 %
Test CRC 962232C9
Copy CRC 962232C9
Copy OK

No errors occurred

AccurateRip summary

Track 1 accurately ripped (confidence 28) [9C7C1286]
Track 2 accurately ripped (confidence 28) [573FF5B5]
Track 3 accurately ripped (confidence 29) [C090275F]
Track 4 accurately ripped (confidence 30) [9EFE997D]
Track 5 accurately ripped (confidence 29) [A3F7D496]
Track 6 accurately ripped (confidence 27) [8C243707]
Track 7 accurately ripped (confidence 29) [3FF2A615]
Track 8 accurately ripped (confidence 28) [D41DDE69]
Track 9 accurately ripped (confidence 28) [41D9CAEC]

All tracks accurately ripped

End of status report

==== Log checksum 53A8B6A76FEF41F772B8F832A6107BAB141611D4009BA9D4C4 98FC420C7F3C57 ====

Cue:

REM GENRE “Progressive Rock”
REM DATE 1976
REM DISCID 760BF309
REM COMMENT “ExactAudioCopy v1.0b1”
PERFORMER “Genesis”
TITLE “Wind & Wuthering (CDSCD 4005)”
FILE “Genesis – Wind & Wuthering (CDSCD 4005).flac” WAVE
TRACK 01 AUDIO
TITLE “Eleventh Earl of Mar”
PERFORMER “Genesis”
INDEX 01 00:00:00
TRACK 02 AUDIO
TITLE “One for the vine”
PERFORMER “Genesis”
INDEX 00 07:43:10
INDEX 01 07:45:12
TRACK 03 AUDIO
TITLE “Your own special way”
PERFORMER “Genesis”
INDEX 01 17:45:47
TRACK 04 AUDIO
TITLE “Wot gorilla?”
PERFORMER “Genesis”
INDEX 01 24:04:25
TRACK 05 AUDIO
TITLE “All in a mouse’s night”
PERFORMER “Genesis”
INDEX 01 27:24:20
TRACK 06 AUDIO
TITLE “Blood on the rooftops”
PERFORMER “Genesis”
INDEX 00 34:02:22
INDEX 01 34:03:22
TRACK 07 AUDIO
TITLE “Unquiet slumber for the sleepers…”
PERFORMER “Genesis”
INDEX 01 39:31:10
TRACK 08 AUDIO
TITLE “…in that quiet Earth”
PERFORMER “Genesis”
INDEX 01 41:51:60
TRACK 09 AUDIO
TITLE “Afterglow”
PERFORMER “Genesis”
INDEX 01 46:44:12

Format: FLAC
Bitrate: lossless
Größe: 299 MB

Download

Share-Online, Uploaded

Share-Links

http://s2l.biz/xr5d7una7fw4

Linkcrypt

http://linkcrypt.ws/dir/4q00o2the0z06r8

Nur 1x gepackt, kein Passwort, Mirror kompatibel