Tracklist:

01. Because We Can (4:00)
02. I’m With You (3:44)
03. What About Now (3:45)
04. Pictures Of You (3:58)
05. Amen (4:13)
06. That’s What The Water Made Me (4:26)
07. What’s Left Of Me (4:35)
08. Army Of One (4:35)
09. Thick As Thieves (4:58)
10. Beautiful World (3:49)
11. Room At The End of The World (5:03)
12. The Fighter (4:37)

Bonus Tracks:

13. With These Two Hands (3:59)
14. Not Running Anymore (4:43) (Jon Bon Jovi solo song from the soundtrack for the movie Stand Up Guys)
15. Old Habits Die Hard (3:33) (Jon Bon Jovi solo song from the soundtrack for the movie Stand Up Guys)
16. Every Road Leads Home To You (4:42) (Richie Sambora solo song from his album Aftermath of the Lowdown)

Log:

Exact Audio Copy V1.0 beta 3 from 29. August 2011

EAC extraction logfile from 23. March 2013, 18:25

Bon Jovi / What About Now LE (602537297313)

Used drive : PLEXTOR BD-R PX-B940SA Adapter: 0 ID: 4

Read mode : Secure
Utilize accurate stream : Yes
Defeat audio cache : Yes
Make use of C2 pointers : No

Read offset correction : 667
Overread into Lead-In and Lead-Out : No
Fill up missing offset samples with silence : Yes
Delete leading and trailing silent blocks : No
Null samples used in CRC calculations : Yes
Used interface : Native Win32 interface for Win NT & 2000

Used output format : User Defined Encoder
Selected bitrate : 1024 kBit/s
Quality : High
Add ID3 tag : Yes
Command line compressor : E:\Program Files (x86)\Exact Audio Copy\Flac\flac.exe
Additional command line options : -V -8 -T “Date=%year%” -T “Genre=%genre%” %source%

TOC of the extracted CD

Track | Start | Length | Start sector | End sector
———————————————————
1 | 0:00.00 | 4:00.26 | 0 | 18025
2 | 4:00.26 | 3:44.00 | 18026 | 34825
3 | 7:44.26 | 3:44.40 | 34826 | 51665
4 | 11:28.66 | 3:58.12 | 51666 | 69527
5 | 15:27.03 | 4:12.56 | 69528 | 88483
6 | 19:39.59 | 4:25.56 | 88484 | 108414
7 | 24:05.40 | 4:35.09 | 108415 | 129048
8 | 28:40.49 | 4:34.70 | 129049 | 149668
9 | 33:15.44 | 4:57.43 | 149669 | 171986
10 | 38:13.12 | 3:48.69 | 171987 | 189155
11 | 42:02.06 | 5:02.57 | 189156 | 211862
12 | 47:04.63 | 4:37.26 | 211863 | 232663
13 | 51:42.14 | 3:58.65 | 232664 | 250578
14 | 55:41.04 | 4:43.33 | 250579 | 271836
15 | 60:24.37 | 3:33.13 | 271837 | 287824
16 | 63:57.50 | 4:42.10 | 287825 | 308984

Range status and errors

Selected range

Filename D:\MUSIC\Bon Jovi – What About Now LE (602537297313).wav

Peak level 100.0 %
Extraction speed 5.2 X
Range quality 99.9 %
Test CRC 5D8B42F2
Copy CRC 5D8B42F2
Copy OK

No errors occurred

AccurateRip summary

Track 1 not present in database
Track 2 not present in database
Track 3 not present in database
Track 4 not present in database
Track 5 not present in database
Track 6 not present in database
Track 7 not present in database
Track 8 not present in database
Track 9 not present in database
Track 10 not present in database
Track 11 not present in database
Track 12 not present in database
Track 13 not present in database
Track 14 not present in database
Track 15 not present in database
Track 16 not present in database

None of the tracks are present in the AccurateRip database

End of status report

==== Log checksum 8B46A08B86EA3757AB3CEBEE33F01CB0BAA74DAEF425EE69DD 690C2B49D79F25 ====

Cue:

REM GENRE Rock
REM DATE 2013
REM DISCID EC101710
REM COMMENT “ExactAudioCopy v1.0b3”
PERFORMER “Bon Jovi”
TITLE “What About Now LE (602537297313)”
FILE “Bon Jovi – What About Now LE (602537297313).flac” WAVE
TRACK 01 AUDIO
TITLE “Because We Can”
PERFORMER “Bon Jovi”
FLAGS DCP
INDEX 01 00:00:00
TRACK 02 AUDIO
TITLE “Im With You”
PERFORMER “Bon Jovi”
FLAGS DCP
INDEX 01 04:00:26
TRACK 03 AUDIO
TITLE “What About Now”
PERFORMER “Bon Jovi”
FLAGS DCP
INDEX 01 07:44:26
TRACK 04 AUDIO
TITLE “Pictures Of You”
PERFORMER “Bon Jovi”
FLAGS DCP
INDEX 01 11:28:66
TRACK 05 AUDIO
TITLE “Amen”
PERFORMER “Bon Jovi”
FLAGS DCP
INDEX 01 15:27:03
TRACK 06 AUDIO
TITLE “Thats What The Water Made Me”
PERFORMER “Bon Jovi”
FLAGS DCP
INDEX 01 19:39:59
TRACK 07 AUDIO
TITLE “Whats Left Of Me”
PERFORMER “Bon Jovi”
FLAGS DCP
INDEX 01 24:05:40
TRACK 08 AUDIO
TITLE “Army Of One”
PERFORMER “Bon Jovi”
FLAGS DCP
INDEX 01 28:40:49
TRACK 09 AUDIO
TITLE “Thick As Thieves”
PERFORMER “Bon Jovi”
FLAGS DCP
INDEX 01 33:15:44
TRACK 10 AUDIO
TITLE “Beautiful World”
PERFORMER “Bon Jovi”
FLAGS DCP
INDEX 01 38:13:12
TRACK 11 AUDIO
TITLE “Room At The End Of The World”
PERFORMER “Bon Jovi”
FLAGS DCP
INDEX 01 42:02:06
TRACK 12 AUDIO
TITLE “The Fighter”
PERFORMER “Bon Jovi”
FLAGS DCP
INDEX 01 47:04:63
TRACK 13 AUDIO
TITLE “With These Two Hands (Bonus Track)”
PERFORMER “Bon Jovi”
FLAGS DCP
INDEX 01 51:42:14
TRACK 14 AUDIO
TITLE “Not Running Anymore (Bonus Track)”
PERFORMER “Bon Jovi”
FLAGS DCP
INDEX 01 55:41:04
TRACK 15 AUDIO
TITLE “Old Habits Die Hard (Bonus Track)”
PERFORMER “Bon Jovi”
FLAGS DCP
INDEX 01 60:24:37
TRACK 16 AUDIO
TITLE “Every Road Leads Home To You (Bonus Track)”
PERFORMER “Bon Jovi”
FLAGS DCP
INDEX 01 63:57:50

Format: FLAC
Bitrate: lossless
Größe: 470 MB

Download

Share-Online, Uploaded

Share-Links

http://s2l.biz/si5gzsnh1nw

Linkcrypt

http://linkcrypt.ws/dir/rb1mxw39j7695d5

Nur 1x gepackt, kein Passwort, Mirror kompatibel