Quelle: Pressed CD
Release: 1970
Decoder: XLD
Format: Flac
Bitrate: lossless
Größe: 214 MB
Hoster: Share-Online, Uploaded, FileFactory

Tracklist

01. Bridge Over Troubled Water
02. El Condor Pasa (If I Could)
03. Cecilia
04. Keep the Customer Satisfied
05. So Long, Frank Lloyd Wright
06. The Boxer
07. Baby Driver
08. The Only Living Boy in New York
09. Why Don’t You Write Me
10. Bye Bye Love
11. Song for the Asking

Log

X Lossless Decoder version 20131102 (145.0)

XLD extraction logfile from 2014-02-20 14:02:36 +0100

Simon & Garfunkel / Bridge Over Troubled Water

Used drive : MATSHITA DVD-R UJ-898 (revision HC10)
Media type : Pressed CD

Ripper mode : XLD Secure Ripper
Disable audio cache : OK for the drive with a cache less than 1375KiB
Make use of C2 pointers : NO
Read offset correction : 102
Max retry count : 20
Gap status : Analyzed, Appended

TOC of the extracted CD
Track | Start | Length | Start sector | End sector
———————————————————
1 | 00:00:00 | 04:55:10 | 0 | 22134
2 | 04:55:10 | 03:09:17 | 22135 | 36326
3 | 08:04:27 | 02:55:10 | 36327 | 49461
4 | 10:59:37 | 02:37:70 | 49462 | 61306
5 | 13:37:32 | 03:45:33 | 61307 | 78214
6 | 17:22:65 | 05:12:72 | 78215 | 101686
7 | 22:35:62 | 03:18:13 | 101687 | 116549
8 | 25:54:00 | 04:02:00 | 116550 | 134699
9 | 29:56:00 | 02:45:37 | 134700 | 147111
10 | 32:41:37 | 02:55:50 | 147112 | 160286
11 | 35:37:12 | 01:49:08 | 160287 | 168469

List of alternate offset correction values
# | Absolute | Relative | Confidence
——————————————
1 | -758 | -860 | 46
2 | -592 | -694 | 2

AccurateRip Summary (DiscID: 00106c1c-008cfb37-aa08c60b)
Track 01 : OK (v1+v2, confidence 192/413)
Track 02 : OK (v1+v2, confidence 192/407)
Track 03 : OK (v1+v2, confidence 193/411)
Track 04 : OK (v1+v2, confidence 193/411)
Track 05 : OK (v1+v2, confidence 192/409)
Track 06 : OK (v1+v2, confidence 191/409)
Track 07 : OK (v1+v2, confidence 192/408)
Track 08 : OK (v1+v2, confidence 192/411)
Track 09 : OK (v1+v2, confidence 194/412)
Track 10 : OK (v1+v2, confidence 194/412)
Track 11 : OK (v1+v2, confidence 193/409)
->All tracks accurately ripped.

All Tracks
Statistics
Read error : 0
Jitter error (maybe fixed) : 0
Retry sector count : 0
Damaged sector count : 0

Track 01
Filename : /Users/Shared/temp/01. Bridge Over Troubled Water.flac
Pre-gap length : 00:02:00

CRC32 hash : 45FEDBEE
CRC32 hash (skip zero) : 8FFDC3C4
AccurateRip v1 signature : 0E3B90C7
AccurateRip v2 signature : 7198D55D
->Accurately ripped (v1+v2, confidence 106+86/413)
Statistics
Read error : 0
Jitter error (maybe fixed) : 0
Retry sector count : 0
Damaged sector count : 0

Track 02
Filename : /Users/Shared/temp/02. El Condor Pasa (If I Could).flac
Pre-gap length : 00:03:53

CRC32 hash : 46D4459E
CRC32 hash (skip zero) : 2F01DBF8
AccurateRip v1 signature : B80C4B1E
AccurateRip v2 signature : BFB94205
->Accurately ripped (v1+v2, confidence 106+86/407)
Statistics
Read error : 0
Jitter error (maybe fixed) : 0
Retry sector count : 0
Damaged sector count : 0

Track 03
Filename : /Users/Shared/temp/03. Cecilia.flac
Pre-gap length : 00:01:37

CRC32 hash : 4AB0B15F
CRC32 hash (skip zero) : F739A389
AccurateRip v1 signature : 83A20183
AccurateRip v2 signature : A447ED2B
->Accurately ripped (v1+v2, confidence 106+87/411)
Statistics
Read error : 0
Jitter error (maybe fixed) : 0
Retry sector count : 0
Damaged sector count : 0

Track 04
Filename : /Users/Shared/temp/04. Keep the Customer Satisfied.flac

CRC32 hash : 75B98CE4
CRC32 hash (skip zero) : E6D5EFBA
AccurateRip v1 signature : 8A8B1634
AccurateRip v2 signature : FB69E2D4
->Accurately ripped (v1+v2, confidence 107+86/411)
Statistics
Read error : 0
Jitter error (maybe fixed) : 0
Retry sector count : 0
Damaged sector count : 0

Track 05
Filename : /Users/Shared/temp/05. So Long, Frank Lloyd Wright.flac
Pre-gap length : 00:03:42

CRC32 hash : 3AED44B4
CRC32 hash (skip zero) : FC2A39B9
AccurateRip v1 signature : A4E3E781
AccurateRip v2 signature : 6E8F9788
->Accurately ripped (v1+v2, confidence 106+86/409)
Statistics
Read error : 0
Jitter error (maybe fixed) : 0
Retry sector count : 0
Damaged sector count : 0

Track 06
Filename : /Users/Shared/temp/06. The Boxer.flac
Pre-gap length : 00:02:58

CRC32 hash : 1A2FE86D
CRC32 hash (skip zero) : 6DD0207C
AccurateRip v1 signature : 8189DD30
AccurateRip v2 signature : 51578E8D
->Accurately ripped (v1+v2, confidence 106+85/409)
Statistics
Read error : 0
Jitter error (maybe fixed) : 0
Retry sector count : 0
Damaged sector count : 0

Track 07
Filename : /Users/Shared/temp/07. Baby Driver.flac
Pre-gap length : 00:03:12

CRC32 hash : 8FE8A8F8
CRC32 hash (skip zero) : A369BCD0
AccurateRip v1 signature : FAEB8BFC
AccurateRip v2 signature : 4D485B20
->Accurately ripped (v1+v2, confidence 107+85/408)
Statistics
Read error : 0
Jitter error (maybe fixed) : 0
Retry sector count : 0
Damaged sector count : 0

Track 08
Filename : /Users/Shared/temp/08. The Only Living Boy in New York.flac
Pre-gap length : 00:01:03

CRC32 hash : 180C084E
CRC32 hash (skip zero) : D73FB541
AccurateRip v1 signature : 0F0227B8
AccurateRip v2 signature : F09578A3
->Accurately ripped (v1+v2, confidence 107+85/411)
Statistics
Read error : 0
Jitter error (maybe fixed) : 0
Retry sector count : 0
Damaged sector count : 0

Track 09
Filename : /Users/Shared/temp/09. Why Don’t You Write Me.flac
Pre-gap length : 00:04:25

CRC32 hash : A652A254
CRC32 hash (skip zero) : 7C13478A
AccurateRip v1 signature : 5250DBA0
AccurateRip v2 signature : 57F465DB
->Accurately ripped (v1+v2, confidence 107+87/412)
Statistics
Read error : 0
Jitter error (maybe fixed) : 0
Retry sector count : 0
Damaged sector count : 0

Track 10
Filename : /Users/Shared/temp/10. Bye Bye Love.flac

CRC32 hash : FE1667C2
CRC32 hash (skip zero) : 08D16666
AccurateRip v1 signature : 387CD058
AccurateRip v2 signature : 10BCEB85
->Accurately ripped (v1+v2, confidence 107+87/412)
Statistics
Read error : 0
Jitter error (maybe fixed) : 0
Retry sector count : 0
Damaged sector count : 0

Track 11
Filename : /Users/Shared/temp/11. Song for the Asking.flac

CRC32 hash : 6B64F4C3
CRC32 hash (skip zero) : 73A98BA2
AccurateRip v1 signature : BCF3F5ED
AccurateRip v2 signature : CABB420E
->Accurately ripped (v1+v2, confidence 106+87/409)
Statistics
Read error : 0
Jitter error (maybe fixed) : 0
Retry sector count : 0
Damaged sector count : 0

No errors occurred

End of status report

Cue

TITLE “Bridge Over Troubled Water”
PERFORMER “Simon & Garfunkel”
REM GENRE “Pop”
REM DATE “1970”
REM DISCNUMBER 3
REM TOTALDISCS 3
REM DISCID AA08C60B
FILE “01. Bridge Over Troubled Water.flac” WAVE
TRACK 01 AUDIO
TITLE “Bridge Over Troubled Water”
PERFORMER “Simon & Garfunkel”
SONGWRITER “Paul Simon”
ISRC USSM10103868
INDEX 01 00:00:00
TRACK 02 AUDIO
TITLE “El Condor Pasa (If I Could)”
PERFORMER “Simon & Garfunkel”
SONGWRITER “Paul Simon, Daniel Alomía Robles, Jorge Milchberg”
ISRC USSM10103869
INDEX 00 04:51:32
FILE “02. El Condor Pasa (If I Could).flac” WAVE
INDEX 01 00:00:00
TRACK 03 AUDIO
TITLE “Cecilia”
PERFORMER “Simon & Garfunkel”
SONGWRITER “Paul Simon”
ISRC USSM10103870
INDEX 00 03:07:55
FILE “03. Cecilia.flac” WAVE
INDEX 01 00:00:00
FILE “04. Keep the Customer Satisfied.flac” WAVE
TRACK 04 AUDIO
TITLE “Keep the Customer Satisfied”
PERFORMER “Simon & Garfunkel”
SONGWRITER “Paul Simon”
ISRC USSM10103871
INDEX 01 00:00:00
TRACK 05 AUDIO
TITLE “So Long, Frank Lloyd Wright”
PERFORMER “Simon & Garfunkel”
SONGWRITER “Paul Simon”
ISRC USSM10103872
INDEX 00 02:34:28
FILE “05. So Long, Frank Lloyd Wright.flac” WAVE
INDEX 01 00:00:00
TRACK 06 AUDIO
TITLE “The Boxer”
PERFORMER “Simon & Garfunkel”
SONGWRITER “Paul Simon”
ISRC USSM10103873
INDEX 00 03:42:50
FILE “06. The Boxer.flac” WAVE
INDEX 01 00:00:00
TRACK 07 AUDIO
TITLE “Baby Driver”
PERFORMER “Simon & Garfunkel”
SONGWRITER “Paul Simon”
ISRC USSM10103874
INDEX 00 05:09:60
FILE “07. Baby Driver.flac” WAVE
INDEX 01 00:00:00
TRACK 08 AUDIO
TITLE “The Only Living Boy in New York”
PERFORMER “Simon & Garfunkel”
SONGWRITER “Paul Simon”
ISRC USSM10103875
INDEX 00 03:17:10
FILE “08. The Only Living Boy in New York.flac” WAVE
INDEX 01 00:00:00
TRACK 09 AUDIO
TITLE “Why Don’t You Write Me”
PERFORMER “Simon & Garfunkel”
SONGWRITER “Paul Simon”
ISRC USSM10103876
INDEX 00 03:57:50
FILE “09. Why Don’t You Write Me.flac” WAVE
INDEX 01 00:00:00
FILE “10. Bye Bye Love.flac” WAVE
TRACK 10 AUDIO
TITLE “Bye Bye Love”
PERFORMER “Simon & Garfunkel”
SONGWRITER “Felice Bryant/Boudleaux Bryant”
INDEX 01 00:00:00
FILE “11. Song for the Asking.flac” WAVE
TRACK 11 AUDIO
TITLE “Song for the Asking”
PERFORMER “Simon & Garfunkel”
SONGWRITER “Paul Simon”
ISRC USSM10103878
INDEX 01 00:00:00

Download

Uploaded
Share-Online
FileFactory

Password

tps42

Alle Mirror / Teile sind kompatibel.