Z-Nation | Staffel 2


720p: MKV | 1280 x 720 | 5.1 AC3 Englisch + Deutsche Untertitel | ~1450 MB

NFO

Code:

Format                                  : Matroska
Format version                          : Version 2
File size                                : 1.40 GiB
Duration                                : 43mn 43s
Overall bit rate                        : 4 570 Kbps
Encoded date                            : UTC 2015-09-16 19:07:41
Writing application                      : mkvmerge v4.4.0 (‘Die Wiederkehr’) gebaut am Oct 31 2010 21:52:48
Writing library                          : libebml v1.0.0 + libmatroska v1.0.0

Video
ID                                      : 1
Format                                  : AVC
Format/Info                              : Advanced Video Codec
Format profile                          : High@L4.1
Format settings, CABAC                  : Yes
Format settings, ReFrames                : 5 frames
Muxing mode                              : Header stripping
Codec ID                                : V_MPEG4/ISO/AVC
Duration                                : 43mn 43s
Bit rate                                : 4 095 Kbps
Width                                    : 1 280 pixels
Height                                  : 720 pixels
Display aspect ratio                    : 16:9
Frame rate mode                          : Constant
Frame rate                              : 23.976 fps
Color space                              : YUV
Chroma subsampling                      : 4:2:0
Bit depth                                : 8 bits
Scan type                                : Progressive
Bits/(Pixel*Frame)                      : 0.185
Stream size                              : 1.25 GiB (90%)
Writing library                          : x264 core 148 r2597 e86f3a1
Encoding settings                        : cabac=1 / ref=5 / deblock=1:0:0 / analyse=0x3:0x113 / me=umh / subme=8 / psy=1 / psy_rd=1.00:0.00 / mixed_ref=1 / me_range=16 / chroma_me=1 / trellis=1 / 8x8dct=1 / cqm=0 / deadzone=21,11 / fast_pskip=1 / chroma_qp_offset=-2 / threads=22 / lookahead_threads=3 / sliced_threads=0 / nr=0 / decimate=1 / interlaced=0 / bluray_compat=0 / constrained_intra=0 / bframes=3 / b_pyramid=2 / b_adapt=2 / b_bias=0 / direct=3 / weightb=1 / open_gop=0 / weightp=2 / keyint=250 / keyint_min=23 / scenecut=40 / intra_refresh=0 / rc_lookahead=50 / rc=crf / mbtree=1 / crf=18.0 / qcomp=0.60 / qpmin=0 / qpmax=69 / qpstep=4 / ip_ratio=1.40 / aq=1:1.00
Language                                : English
Default                                  : Yes
Forced                                  : No
Matrix coefficients                      : BT.709

Audio
ID                                      : 2
Format                                  : AC-3
Format/Info                              : Audio Coding 3
Mode extension                          : CM (complete main)
Format settings, Endianness              : Big
Muxing mode                              : Header stripping
Codec ID                                : A_AC3
Duration                                : 43mn 43s
Bit rate mode                            : Constant
Bit rate                                : 384 Kbps
Channel(s)                              : 6 channels
Channel positions                        : Front: L C R, Side: L R, LFE
Sampling rate                            : 48.0 KHz
Bit depth                                : 16 bits
Compression mode                        : Lossy
Stream size                              : 120 MiB (8%)
Default                                  : Yes
Forced                                  : No

Text
ID                                      : 3
Format                                  : UTF-8
Codec ID                                : S_TEXT/UTF8
Codec ID/Info                            : UTF-8 Plain Text
Language                                : German
Default                                  : Yes
Forced                                  : Yes

1 Part pro Folge ungepackt »» || Uploaded.to

Sammel Container. Folgen einzeln gepackt. Hosterwechsel im Downloadfenster möglich.

Download gepackt »» || Uploaded.to || Share-online.biz

Zitat:

Drei Jahre nachdem ein Zombie-Virus die Menschheit nahezu vollständig ausgerottet hat, konzentriert sich deren letzte Hoffnung auf Murphy – den einzigen bekannten Überlebenden eines Zombieangriffs. Um aus seinem Blut einen Impfstoff entwickeln zu können, transportieren Lieutenant Mark Hammond und Sergeant Garnett den Gefängnisinsassen von New York zu dem letzten funktionstüchtigen Virenlabor nach Kalifornien. Bald schließen sich weitere Kämpfer wie die ehemalige Reservistin Roberta Warren und der talentierte Zombie-Beseitiger 10K dem hoffnungsvollen Trupp an. Doch der potentielle Heilsbringer Murphy trägt nicht nur die begehrten Antikörper in sich, sondern auch ein gefährliches Geheimnis – und jede Menge schlechte Laune.

Z.Nation.S02E01.German.Subbed.720p.HDTV.x264-WhatSubbed