Elektra.2005.German.x264.AAC.dTV-rolli

Titel: Elektra
Sprache/n: Deutsch
Hoster: Uploaded.net, Share-online.biz
Größe: 648 MB

Sie ist schnell, durchtrainiert und perfekt – Elektra (JENNIFER GARNER) ist die beste Auftragsmörderin der Welt. Man vergleicht sie mit einem tödlichen Phantom und keine kann so elegant mit Messern umgehen wie sie. Doch als Elektra die 13-jährige Abby (KIRSTEN PROUT) und deren Vater Mark (GORAN VISNJIC) töten soll, bringt sie es nicht übers Herz, beschützt die beiden sogar vor einem Anschlag des dunklen Geheimbunds “The Hand”. Ein gnadenloser Krieg zwischen Gut und Böse beginnt, bei dem Elektra all ihr Können und Wissen auf eine Karte setzen muss, um Mark und Abby zu retten. Der Kampf gipfelt in einem finalen action- und effektreichen Fight gegen den übermächtigen “The Hand”-Anführer Kirigi (WILL YUN LEE) und seine fiesen Schergen – die todbringende Typhoid, den granitharten Stone und den wandlungsfähigen Tattoo. Und für Elektra geht es letztendlich nicht nur um das Überleben ihrer beiden Schützlinge, sondern auch um die Auseinandersetzung mit den Dämonen ihrer eigenen Vergangenheit…

Info:

General
Format : MPEG-4
Format profile : Base Media / Version 2
Codec ID : mp42
File size : 648 MiB
Duration : 1h 25mn
Overall bit rate mode : Variable
Overall bit rate : 1 058 Kbps
Encoded date : UTC 2015-09-16 11:27:04
Tagged date : UTC 2015-09-16 11:27:04

Video
ID : 201
Format : AVC
Format/Info : Advanced Video Codec
Format profile : High@L3
Format settings, CABAC : Yes
Format settings, ReFrames : 4 frames
Codec ID : avc1
Codec ID/Info : Advanced Video Coding
Duration : 1h 25mn
Source duration : 1h 25mn
Bit rate : 844 Kbps
Maximum bit rate : 5 246 Kbps
Width : 720 pixels
Height : 576 pixels
Display aspect ratio : 16:9
Frame rate mode : Constant
Frame rate : 25.000 fps
Standard : PAL
Color space : YUV
Chroma subsampling : 4:2:0
Bit depth : 8 bits
Scan type : Progressive
Bits/(Pixel*Frame) : 0.081
Stream size : 517 MiB (80%)
Source stream size : 546 MiB (84%)
Encoded date : UTC 2015-09-16 11:27:04
Tagged date : UTC 2015-09-16 11:27:07
Color range : Limited
Color primaries : BT.601 PAL
Transfer characteristics : BT.470 System B, BT.470 System G
Matrix coefficients : BT.601

Audio
ID : 101
Format : AAC
Format/Info : Advanced Audio Codec
Format profile : LC
Codec ID : 40
Duration : 1h 25mn
Bit rate mode : Variable
Bit rate : 163 Kbps
Maximum bit rate : 205 Kbps
Channel(s) : 2 channels
Channel positions : Front: L R
Sampling rate : 48.0 KHz
Compression mode : Lossy
Stream size : 100.0 MiB (15%)
Encoded date : UTC 2015-09-16 11:27:07
Tagged date : UTC 2015-09-16 11:27:07

Other #1
ID : 2
Type : Object description
Format : System
Codec ID : 1
Duration : 1s 0ms
Encoded date : UTC 2015-09-16 11:27:07
Tagged date : UTC 2015-09-16 11:27:07

Other #2
ID : 1
Type : Scene description
Format : System Core
Codec ID : 2
Duration : 1s 0ms
Encoded date : UTC 2015-09-16 11:27:07
Tagged date : UTC 2015-09-16 11:27:07

Uploaded.net

Share-online.biz [img][/img]