Lily & Kat (2015) 720p WEB-DL DD5.1 H.264-PLAYNOW

Info

Code:

Format : Matroska
Format version : Version 4 / Version 2
File size : 2.75 GiB
Duration : 1h 28mn
Overall bit rate : 4 445 Kbps
Encoded date : UTC 2015-03-24 14:19:24
Writing application : mkvmerge v7.0.0 (‘Where We Going’) 64bit built on Jun 9 2014 15:16:27
Writing library : libebml v1.3.0 + libmatroska v1.4.1
DURATION : 01:28:31.168000000
NUMBER_OF_FRAMES : 165974
NUMBER_OF_BYTES : 254936064
_STATISTICS_WRITING_APP : mkvmerge v7.0.0 (‘Where We Going’) 64bit built on Jun 9 2014 15:16:27
_STATISTICS_WRITING_DATE_UTC : 2015-03-24 14:19:24
_STATISTICS_TAGS : BPS DURATION NUMBER_OF_FRAMES NUMBER_OF_BYTES

Video
ID : 1
Format : AVC
Format/Info : Advanced Video Codec
Format profile : Main@L3.1
Format settings, CABAC : No
Format settings, ReFrames : 2 frames
Codec ID : V_MPEG4/ISO/AVC
Duration : 1h 28mn
Bit rate : 3 973 Kbps
Width : 1 280 pixels
Height : 524 pixels
Display aspect ratio : 2.40:1
Frame rate mode : Constant
Frame rate : 23.976 fps
Color space : YUV
Chroma subsampling : 4:2:0
Bit depth : 8 bits
Scan type : Progressive
Bits/(Pixel*Frame) : 0.247
Stream size : 2.46 GiB (89%)
Language : English
Default : Yes
Forced : No
Color primaries : BT.709
Transfer characteristics : BT.709
Matrix coefficients : BT.709

Audio
ID : 2
Format : AC-3
Format/Info : Audio Coding 3
Mode extension : CM (complete main)
Format settings, Endianness : Big
Codec ID : A_AC3
Duration : 1h 28mn
Bit rate mode : Constant
Bit rate : 384 Kbps
Channel(s) : 6 channels
Channel positions : Front: L C R, Side: L R, LFE
Sampling rate : 48.0 KHz
Bit depth : 16 bits
Compression mode : Lossy
Stream size : 243 MiB (9%)
Language : English
Default : Yes
Forced : No

Text
ID : 3
Format : UTF-8
Codec ID : S_TEXT/UTF8
Codec ID/Info : UTF-8 Plain Text
Language : English
Default : No
Forced : No

Password: xuanxit | Interchangeable links

Uploadable

Code:

Lily.And.Kat.2015.720p.WEB-DL.DD5.1.H.264-PLAYNOW.part1.rar
Lily.And.Kat.2015.720p.WEB-DL.DD5.1.H.264-PLAYNOW.part2.rar
Lily.And.Kat.2015.720p.WEB-DL.DD5.1.H.264-PLAYNOW.part3.rar

Uploaded

Code:

http://sflk.in/OotgXtK

Password = xuanxit

If you like my post or download my link, please “say thanks”

Enjoy! ^^