englisch

WWWF All-Star Wrestling 1976-02-28 720p WEB DL x264

Share-Online – dl/IEBU62KN7Q7
1976-02-28.WWWF.All.Star.Wr…mp4 (1,46 GB) – uploaded.net

Code:

IEBU62KN7Q7
1976-02-28.WWWF.All.Star.Wrestling.WEB-DL.4500k.mp4

NFO:

Code:

Louie Serdan & Tony Parisi vs Cowboy Bob & Baron Miguel Scicluna [WWWF Tag Team Championship]
Bobo Brazil v. Hans Schroeder
Vince McMahon interview with The Grand Wizard of Wrestling & Bugsy McGraw
Stan Hansen v. Johnny Rivera
Kevin Sullivan & Pat Barras v. Billy Coleman & Frank Monti
Dominic Denucci v. Louis Cyr

Video
ID                                      : 1
Format                                  : AVC
Format/Info                              : Advanced Video Codec
Format profile                          : High@L4.0
Format settings, CABAC                  : Yes
Format settings, ReFrames                : 3 frames
Codec ID                                : avc1
Codec ID/Info                            : Advanced Video Coding
Duration                                : 46mn 39s
Bit rate mode                            : Variable
Bit rate                                : 4 385 Kbps
Maximum bit rate                        : 5 500 Kbps
Width                                    : 1 280 pixels
Height                                  : 720 pixels
Display aspect ratio                    : 16:9
Frame rate mode                          : Constant
Frame rate                              : 29.970 fps
Color space                              : YUV
Chroma subsampling                      : 4:2:0
Bit depth                                : 8 bits
Scan type                                : Progressive
Bits/(Pixel*Frame)                      : 0.159
Stream size                              : 1.43 GiB (98%)

Audio
ID                                      : 2
Format                                  : AAC
Format/Info                              : Advanced Audio Codec
Format profile                          : LC
Codec ID                                : 40
Duration                                : 46mn 39s
Bit rate mode                            : Variable
Bit rate                                : 93.5 Kbps
Maximum bit rate                        : 96.0 Kbps
Channel(s)                              : 2 channels
Channel positions                        : Front: L R
Sampling rate                            : 48.0 KHz
Compression mode                        : Lossy
Stream size                              : 31.2 MiB (2%)

Hoster:
ul.to + Share-Online.biz