Título original
The Fallen Sparrow
Año
1943
Duración
94 min.
País
Estados Unidos
Director
Richard Wallace
Guión
Warren Duff (Novela: Dorothy B. Hughes)
Música
Roy Webb
Fotografía
Nicholas Musuraca (B&W)
Reparto
John Garfield, Maureen O’Hara, Walter Slezak, Patricia Morison, Martha O’Driscoll, Bruce Edwards, John Banner, John Miljan, Hugh Beaumont
Productora
RKO Radio Pictures
Género
Cine negro. Thriller | Guerra Civil Española
Sinopsis
John ‘Kit’ McKittrick (Garfield), un hombre que combatió en la Guerra Civil española (1936-1939) dentro de las Brigadas Internacionales, huye de una cárcel nazi, en la que ha sufrido torturas durante dos años. Al volver a Nueva York, se entera de que su mejor amigo se ha suicidado durante una fiesta. Sospechando que su amigo ha sido víctima de un oscuro complot organizado por agentes extranjeros, decide investigar por su cuenta hasta encontrar al asesino. (FILMAFFINITY)
—————————————-
Protagonizada brillantemente por John Garfield y Maureen O’Hara, The Fallen Sparrow (Perseguido) rebosa intriga al estilo de Agatha Christie, sobre un fondo de Guerra Civil española y de colaboración entre nazis y franquistas. En nuestro país, al igual que ocurrió con la adaptación cinematográfica de la novela de Ernest Hemingway For Whom the Bell Tolls (¿Por quién doblan las campanas?), también producida en 1943, fue vetada por la censura y no llegó a estrenarse en la época. Es hora de redescubrirla.

Spoiler

General
Unique ID : 170913960322167445372270124042432754027 (0x8094D4D7464255AF864EB3BFBAEF316B)
Complete name : G:\Downloads\Perseguido.1943.Dvdrip Dual ll.mkv
Format : Matroska
Format version : Version 4 / Version 2
File size : 1.04 GiB
Duration : 1h 33mn
Overall bit rate : 1 585 Kbps
Encoded date : UTC 2015-02-08 07:40:27
Writing application : mkvmerge v7.1.0 (‘Good Love’) 64bit built on Jul 27 2014 13:06:55
Writing library : libebml v1.3.0 + libmatroska v1.4.1
DURATION : 01:33:06.122000000
NUMBER_OF_FRAMES : 1222
NUMBER_OF_BYTES : 46864
_STATISTICS_WRITING_APP : mkvmerge v7.1.0 (‘Good Love’) 64bit built on Jul 27 2014 13:06:55
_STATISTICS_WRITING_DATE_UTC : 2015-02-08 07:40:27
_STATISTICS_TAGS : BPS DURATION NUMBER_OF_FRAMES NUMBER_OF_BYTES

Video
ID : 1
Format : AVC
Format/Info : Advanced Video Codec
Format profile : High@L4.1
Format settings, CABAC : Yes
Format settings, ReFrames : 16 frames
Codec ID : V_MPEG4/ISO/AVC
Duration : 1h 33mn
Bit rate : 1 137 Kbps
Width : 696 pixels
Height : 568 pixels
Display aspect ratio : 4:3
Original display aspect ratio : 4:3
Frame rate mode : Constant
Frame rate : 25.000 fps
Color space : YUV
Chroma subsampling : 4:2:0
Bit depth : 8 bits
Scan type : Progressive
Bits/(Pixel*Frame) : 0.115
Stream size : 761 MiB (72%)
Writing library : x264 core 142 r2479 dd79a61
Encoding settings : cabac=1 / ref=16 / deblock=1:-2:-1 / analyse=0x3:0x133 / me=umh / subme=10 / psy=1 / psy_rd=1.00:0.15 / mixed_ref=1 / me_range=32 / chroma_me=0 / trellis=2 / 8x8dct=1 / cqm=2 / deadzone=21,11 / fast_pskip=1 / chroma_qp_offset=-3 / threads=6 / lookahead_threads=1 / sliced_threads=0 / nr=0 / decimate=1 / interlaced=0 / bluray_compat=0 / constrained_intra=0 / bframes=8 / b_pyramid=2 / b_adapt=2 / b_bias=0 / direct=3 / weightb=1 / open_gop=0 / weightp=2 / keyint=250 / keyint_min=25 / scenecut=40 / intra_refresh=0 / rc_lookahead=60 / rc=crf / mbtree=1 / crf=18.0 / qcomp=0.60 / qpmin=0 / qpmax=69 / qpstep=4 / ip_ratio=1.40 / aq=2:1.00
Language : English
Default : Yes
Forced : No
Color primaries : BT.601 PAL
Transfer characteristics : BT.709
Matrix coefficients : BT.601
DURATION : 01:33:34.920000000
NUMBER_OF_FRAMES : 140373
NUMBER_OF_BYTES : 818939373
_STATISTICS_WRITING_APP : mkvmerge v7.1.0 (‘Good Love’) 64bit built on Jul 27 2014 13:06:55
_STATISTICS_WRITING_DATE_UTC : 2015-02-08 07:40:27
_STATISTICS_TAGS : BPS DURATION NUMBER_OF_FRAMES NUMBER_OF_BYTES

Audio #1
ID : 2
Format : AC-3
Format/Info : Audio Coding 3
Mode extension : CM (complete main)
Format settings, Endianness : Big
Codec ID : A_AC3
Duration : 1h 33mn
Bit rate mode : Constant
Bit rate : 192 Kbps
Channel(s) : 2 channels
Channel positions : Front: L R
Sampling rate : 48.0 KHz
Bit depth : 16 bits
Compression mode : Lossy
Stream size : 129 MiB (12%)
Language : Spanish
Default : Yes
Forced : No

Audio #2
ID : 3
Format : AC-3
Format/Info : Audio Coding 3
Mode extension : CM (complete main)
Format settings, Endianness : Big
Codec ID : A_AC3
Duration : 1h 33mn
Bit rate mode : Constant
Bit rate : 224 Kbps
Channel(s) : 2 channels
Channel positions : Front: L R
Sampling rate : 48.0 KHz
Bit depth : 16 bits
Compression mode : Lossy
Stream size : 150 MiB (14%)
Language : English
Default : No
Forced : No

Text
ID : 4
Format : UTF-8
Codec ID : S_TEXT/UTF8
Codec ID/Info : UTF-8 Plain Text
Language : Spanish
Default : Yes
Forced : No

Servidores
1fichier/uploaded.to/filefactory[/tusfiles/cloudzilla
cortado con winrar

http://www.keeplinks.eu/p/54d71da835bd5
http://www.relink.us/f/dd4a88ec9cd1adbb0b22f51794c170