Point.and.Shoot.2014.720p.WEB-DL.DD5.1.H264-Jodensai

Code:

Video
ID                                      : 1
Format                                  : AVC
Format/Info                              : Advanced Video Codec
Format profile                          : High@L3.1
Format settings, CABAC                  : No
Format settings, ReFrames                : 2 frames
Codec ID                                : V_MPEG4/ISO/AVC
Duration                                : 1h 23mn
Bit rate                                : 4 163 Kbps
Width                                    : 1 280 pixels
Height                                  : 720 pixels
Display aspect ratio                    : 16:9
Frame rate mode                          : Constant
Frame rate                              : 23.976 fps
Color space                              : YUV
Chroma subsampling                      : 4:2:0
Bit depth                                : 8 bits
Scan type                                : Progressive
Bits/(Pixel*Frame)                      : 0.188
Stream size                              : 2.42 GiB (90%)
Language                                : English
Default                                  : Yes
Forced                                  : No
Color primaries                          : BT.709
Transfer characteristics                : BT.709
Matrix coefficients                      : BT.709
Color range                              : Limited

Audio
ID                                      : 2
Format                                  : AC-3
Format/Info                              : Audio Coding 3
Mode extension                          : CM (complete main)
Format settings, Endianness              : Big
Codec ID                                : A_AC3
Duration                                : 1h 23mn
Bit rate mode                            : Constant
Bit rate                                : 384 Kbps
Channel(s)                              : 6 channels
Channel positions                        : Front: L C R, Side: L R, LFE
Sampling rate                            : 48.0 KHz
Bit depth                                : 16 bits
Compression mode                        : Lossy
Stream size                              : 229 MiB (8%)
Language                                : English
Default                                  : Yes
Forced                                  : No

Menu
00:00:00.000                            : en:My Name Is Matt Vandyke
00:09:39.000                            : en:I Saw a Camel
00:17:38.000                            : en:A War Correspondent
00:28:56.000                            : en:The Arab Spring
00:39:58.000                            : en:Guys in the War
00:42:37.000                            : enrison
00:50:35.000                            : en:I Heard a Commotion
00:59:10.000                            : en:Fighter or Filmmaker
01:09:39.000                            : en:A Real Rebel Fighter
01:20:27.000                            : en:Credits

Code:

uploaded.net:
—-
ukpicd99
or
5nygrmja
tllfgcq1

FREE USER LINKS
—-
http://hugefiles.net/e6e6wdxnewe5
or
http://hugefiles.net/9p2k0ukgn0j4
http://hugefiles.net/5on66uhvj1nd
or
https://userscloud.com/ncco9qpvx2b8
or
https://userscloud.com/fhcvzock2vc8
https://userscloud.com/pxqsn6wgf2so
or
http://uptobox.com/7juum80glwo6
or
http://uptobox.com/ajc110no3y3f
http://uptobox.com/h7y02dvhqqg9

Single & Split Links InterChangeable | No Password
A Simple Thank You Goes a Long Way!