Título original:The Hunger Games: Mockingjay – Part I
Año:2014
Duración:123 min
Director:Francis Lawrence
Guión:Danny Strong (Novela: Suzanne Collins)
Música:James Newton Howard
Fotografía:Jo Willems
Reparto: Jennifer Lawrence, Josh Hutcherson, Liam Hemsworth, Philip Seymour Hoffman, Julianne Moore, Stanley Tucci, Woody Harrelson, Elizabeth Banks, Donald Sutherland, Jeffrey Wright, Natalie Dormer, Sam Claflin, Gwendoline Christie, Robert Knepper, Stef Dawson, Elden Henson, Evan Ross, Mahershala Ali, Wes Chatham, Sarita Choudhury
Productora:Lionsgate Films / Color Force
Género:Ciencia ficción. Aventuras | Thriller futurista. Supervivencia. Distopía. Secuela
Sinopsis:Katniss Everdeen se encuentra en el Distrito 13 después de destrozar los Juegos para siempre. Bajo el liderazgo de la comandante Coin y el consejo de sus amigos más leales, Katniss extiende sus alas mientras lucha por salvar a Peeta Mellark y a una nación alentada por su valentía… Tercera y última entrega de la saga literaria “Los juegos del hambre” de Suzanne Collins, que se divide en dos películas.

Código:

Format                                  : Matroska
Format version                          : Version 2
File size                                : 11.3 GiB
Duration                                : 2h 2mn
Overall bit rate                        : 13.2 Mbps
Encoded date                            : UTC 2015-02-28 09:56:03
Writing application                      : mkvmerge v5.8.0 (‘No Sleep / Pillow’) built on Sep  2 2012 15:37:04
Writing library                          : libebml v1.2.3 + libmatroska v1.3.0

Video
ID                                      : 1
Format                                  : AVC
Format/Info                              : Advanced Video Codec
Format profile                          : High@L4.1
Format settings, CABAC                  : Yes
Format settings, ReFrames                : 5 frames
Codec ID                                : V_MPEG4/ISO/AVC
Duration                                : 2h 2mn
Bit rate                                : 11.0 Mbps
Width                                    : 1 920 pixels
Height                                  : 800 pixels
Display aspect ratio                    : 2.40:1
Frame rate mode                          : Constant
Frame rate                              : 23.976 fps
Color space                              : YUV
Chroma subsampling                      : 4:2:0
Bit depth                                : 8 bits
Scan type                                : Progressive
Bits/(Pixel*Frame)                      : 0.297
Stream size                              : 9.40 GiB (83%)
Writing library                          : x264 core 142 r2431+42 c69a006 tMod [8-bit@all X86_64]
Encoding settings                        : cabac=1 / ref=5 / deblock=1:-3:-3 / analyse=0x3:0x133 / me=umh / subme=10 / psy=1 / fade_compensate=0.00 / psy_rd=1.00:0.00 / mixed_ref=1 / me_range=48 / chroma_me=1 / trellis=2 / 8x8dct=1 / cqm=0 / deadzone=21,11 / fast_pskip=1 / chroma_qp_offset=-2 / threads=16 / lookahead_threads=2 / sliced_threads=0 / nr=0 / decimate=1 / interlaced=0 / bluray_compat=0 / constrained_intra=0 / fgo=0 / bframes=8 / b_pyramid=2 / b_adapt=2 / b_bias=0 / direct=3 / weightb=1 / open_gop=0 / weightp=2 / keyint=250 / keyint_min=23 / scenecut=40 / intra_refresh=0 / rc_lookahead=150 / rc=crf / mbtree=0 / crf=16.5000 / qcomp=0.65 / qpmin=0:0:0 / qpmax=69:69:69 / qpstep=4 / vbv_maxrate=50000 / vbv_bufsize=62500 / crf_max=0.0 / nal_hrd=none / filler=0 / ip_ratio=1.20 / pb_ratio=1.10 / aq=4:0.70 / aq-sensitivity=10.00 / aq-factor=1.00:1.00:1.00 / aq2=0 / aq3=0
Language                                : English
Default                                  : Yes
Forced                                  : No

Audio #1
ID                                      : 2
Format                                  : AC-3
Format/Info                              : Audio Coding 3
Mode extension                          : CM (complete main)
Format settings, Endianness              : Big
Codec ID                                : A_AC3
Duration                                : 2h 2mn
Bit rate mode                            : Constant
Bit rate                                : 448 Kbps
Channel count                            : 2 channels
Channel positions                        : Front: L R
Sampling rate                            : 48.0 KHz
Bit depth                                : 16 bits
Compression mode                        : Lossy
Stream size                              : 394 MiB (3%)
Language                                : Spanish
Default                                  : No
Forced                                  : Yes

Audio #2
ID                                      : 3
Format                                  : DTS
Format/Info                              : Digital Theater Systems
Mode                                    : 16
Format settings, Endianness              : Big
Codec ID                                : A_DTS
Duration                                : 2h 2mn
Bit rate mode                            : Constant
Bit rate                                : 1 510 Kbps
Channel count                            : 6 channels
Channel positions                        : Front: L C R, Side: L R, LFE
Sampling rate                            : 48.0 KHz
Bit depth                                : 24 bits
Compression mode                        : Lossy
Stream size                              : 1.30 GiB (11%)
Language                                : English
Default                                  : No
Forced                                  : No

Text #1
ID                                      : 4
Format                                  : UTF-8
Codec ID                                : S_TEXT/UTF8
Codec ID/Info                            : UTF-8 Plain Text
Language                                : English
Default                                  : No
Forced                                  : No

Text #2
ID                                      : 5
Format                                  : UTF-8
Codec ID                                : S_TEXT/UTF8
Codec ID/Info                            : UTF-8 Plain Text
Language                                : Spanish
Default                                  : No
Forced                                  : No


UPLOADED 1 Link

Código:

UPLOADED
SUBIENDO!!!

Código:

myqg8zdh
eg0ezpeh
xkv88kqy
37o7q9ft
of6kqsz8
ex5zwk0p
0rknnbfe
izs0ip3d
zpp7sdzp
7tv70pv8
8i86mx1z
5tup0t32

LOLABITS(Mixtos, a falta de 1 archivo de 110 Mb)
SUBIENDO!!!

Código:

5tup0t32
http://lolabits.es/mers_pbt/Juegos.Sinsajo.1.BDRip.1080p.DJST.part02,17994658.rar(archive)
http://lolabits.es/mers_pbt/Juegos.Sinsajo.1.BDRip.1080p.DJST.part03,17994664.rar(archive)
http://lolabits.es/mers_pbt/Juegos.Sinsajo.1.BDRip.1080p.DJST.part04,17994682.rar(archive)
http://lolabits.es/mers_pbt/Juegos.Sinsajo.1.BDRip.1080p.DJST.part05,17994686.rar(archive)
http://lolabits.es/mers_pbt/Juegos.Sinsajo.1.BDRip.1080p.DJST.part06,17994653.rar(archive)
http://lolabits.es/mers_pbt/Juegos.Sinsajo.1.BDRip.1080p.DJST.part07,17994652.rar(archive)
http://lolabits.es/mers_pbt/Juegos.Sinsajo.1.BDRip.1080p.DJST.part08,17994655.rar(archive)
http://lolabits.es/mers_pbt/Juegos.Sinsajo.1.BDRip.1080p.DJST.part09,17994684.rar(archive)
http://lolabits.es/mers_pbt/Juegos.Sinsajo.1.BDRip.1080p.DJST.part10,17994693.rar(archive)
http://lolabits.es/mers_pbt/Juegos.Sinsajo.1.BDRip.1080p.DJST.part11,17994690.rar(archive)
http://lolabits.es/mers_pbt/Juegos.Sinsajo.1.BDRip.1080p.DJST.part12,17994656.rar(archive)

SERVIDORES COMPATIBLES EASYBYTEZ ELFFILE.COM
Para descargar a buena velocidad, regitrate en uno de estos hosting e introduce tu cuenta en el JD

EASYBYTEZ

Código:

ELFFILE.COM

Código:

SERVIDORES COMPATIBLES TUSFILE Y MEDIAFREE

LENFILE
Ideal para usuarios que descargan sin PREMIUM
SUBIENDO!!!

Código:

http://lenfile.com/qi5jqwjh52du
http://lenfile.com/pvqjyc6klgl7
http://lenfile.com/8c170hgj36af
http://lenfile.com/118hxnzepgcn
http://lenfile.com/r13iqufboubm
http://lenfile.com/87bpq6rvneo2
http://lenfile.com/nxrunsa16jw2
http://lenfile.com/3ivjv3edovnw
http://lenfile.com/k7smyrewkiw7
http://lenfile.com/fzygrs68z4g0
http://lenfile.com/cvl01aj7rk8p
http://lenfile.com/ktdo7usf0zpw
http://lenfile.com/l08wknj16wco
http://lenfile.com/reg5n1i13g29
http://lenfile.com/ptnjbfsgf3tk
http://lenfile.com/c7p4698lls1d
http://lenfile.com/u12sfe3a5ucp
http://lenfile.com/0kqapip3ts6g
http://lenfile.com/571bjlbqj2ah
http://lenfile.com/ukbh54xiv1z7
http://lenfile.com/3sk1zkcilr88
http://lenfile.com/30r6mn5076vy
http://lenfile.com/vdhfoti0yi9t
http://lenfile.com/bsujgztt5w11
http://lenfile.com/4mfzdi0fwdvs
http://lenfile.com/ldinhfdyd47x
http://lenfile.com/x4pufe1c5ytb
http://lenfile.com/vxw1ani2tse0
http://lenfile.com/fu8xwvm92n10
http://lenfile.com/r8gcsu4h4pxk
http://lenfile.com/nxjss4fiddlp
http://lenfile.com/9vhp5p5gfhz7
http://lenfile.com/w721oouwmwwv
http://lenfile.com/oezmtgzuiyhc
http://lenfile.com/py0allw75uun
http://lenfile.com/wfjtlz6kheq4
http://lenfile.com/qingryqejtwi
http://lenfile.com/nrsq8dwbmnwc
http://lenfile.com/sprjvuov8tl2
http://lenfile.com/pqjhwvmcmsqm
http://lenfile.com/oqsnlfm4oe55
http://lenfile.com/yylxdscwefpm
http://lenfile.com/1bcpxymo8tve
http://lenfile.com/erxfkzs9ruwy
http://lenfile.com/6h11p6rjmcvm
http://lenfile.com/hads7fs6jw3e
http://lenfile.com/jldmsrmz5jig
http://lenfile.com/fdzaaxhashxk
http://lenfile.com/52tcmewavpnp
http://lenfile.com/gemj2mrk2lsv
http://lenfile.com/dglndk8mvdfu
http://lenfile.com/xwvhbhv8hj2g
http://lenfile.com/ze2nygywloq1
http://lenfile.com/rxsp0hwvp5pl
http://lenfile.com/u4hgr6xz8tb2
http://lenfile.com/txzaoldb0qbs
http://lenfile.com/nrfv5m1taciq
http://lenfile.com/9qrshg5fd1da
http://lenfile.com/r1ikntxtqkpr
http://lenfile.com/gy3cgjrtl3ta
http://lenfile.com/zrmz24t9z9fm
http://lenfile.com/0yvwsee3gqke
http://lenfile.com/s3rwvbd4tdpq
http://lenfile.com/hv5x579lljks
http://lenfile.com/ob85h7oplyil
http://lenfile.com/0lbuqekhhux0
http://lenfile.com/kbumn6xdt3b4
http://lenfile.com/z9cn5jlonjhr
http://lenfile.com/ez3gs6zvib17
http://lenfile.com/5iuznqje9l3r
http://lenfile.com/8pgwm9hf2pbu
http://lenfile.com/46txcjauhi77
http://lenfile.com/71gs5lmdeklk
http://lenfile.com/gig5w34fb7r8
http://lenfile.com/tmwt5k3o539n
http://lenfile.com/awqladidkc3f
http://lenfile.com/ac1i35crkjzq
http://lenfile.com/4k5ens8yiytb
http://lenfile.com/57zoyb0pdjbi
http://lenfile.com/gg3kiqnijgef
http://lenfile.com/57kq4qydcgf1
http://lenfile.com/0urong4lgxo3
http://lenfile.com/q1fvu7lqbpod
http://lenfile.com/ivq677bzq6c7
http://lenfile.com/08d67zov489u
http://lenfile.com/4ilro2rz6f1b
http://lenfile.com/i1ptjth95dbn
http://lenfile.com/h8ra9lvmow46
http://lenfile.com/ntvivk09il3i
http://lenfile.com/qasttga02dou
http://lenfile.com/pt964wfo654o
http://lenfile.com/y8xfbrxww77d
http://lenfile.com/bo7tjfuojfz7
http://lenfile.com/dxsp1abk1d3m
http://lenfile.com/jyelobb6eu0h
http://lenfile.com/0nq547obzcfi
http://lenfile.com/q6xjkqsjrzip
http://lenfile.com/3vtbhapa63rk
http://lenfile.com/sd5llcg529sm
http://lenfile.com/yof4duq6hz4o
http://lenfile.com/n1ezahusaqcs
http://lenfile.com/2hwh9wse7zmk
http://lenfile.com/ofp0mqhjndug
http://lenfile.com/ztbmxj987z78
http://lenfile.com/0kdvys37u6sq
http://lenfile.com/i1zbg3pm4lfv
http://lenfile.com/ge5u8ri56nfk

TUSFILES
Ideal para usuarios que descargan sin PREMIUM

Código:

MEDIAFREE
Ideal para usuarios que descargan sin PREMIUM

Código: