Haeundae 해운대 aka Tidal Wave (2009) BluRay 1080p DTS x264-EbP

Code:

http://www.imdb.com/title/tt1153040/

Code:

http://en.wikipedia.org/wiki/Tidal_Wave_(film)

Code:

Format                                  : Matroska
Format version                          : Version 2
File size                                : 10.5 GiB
Duration                                : 2h 0mn
Overall bit rate                        : 12.5 Mbps
Encoded date                            : UTC 2010-04-04 15:05:27
Writing application                      : mkvmerge v3.2.0 (‘Beginnings’) built on Feb 12 2010 16:46:17
Writing library                          : libebml v0.7.9 + libmatroska v0.8.1

Video
ID                                      : 1
Format                                  : AVC
Format/Info                              : Advanced Video Codec
Format profile                          : High@L4.1
Format settings, CABAC                  : Yes
Format settings, ReFrames                : 5 frames
Codec ID                                : V_MPEG4/ISO/AVC
Duration                                : 2h 0mn
Bit rate                                : 11.0 Mbps
Width                                    : 1 916 pixels
Height                                  : 818 pixels
Display aspect ratio                    : 2.35:1
Frame rate mode                          : Constant
Frame rate                              : 23.976 fps
Color space                              : YUV
Chroma subsampling                      : 4:2:0
Bit depth                                : 8 bits
Scan type                                : Progressive
Bits/(Pixel*Frame)                      : 0.293
Stream size                              : 9.03 GiB (86%)
Title                                    : Haeundae (2009)
Writing library                          : x264 core 92 r1510 33d382a
Encoding settings                        : cabac=1 / ref=5 / deblock=1:-3:-3 / analyse=0x3:0x113 / me=umh / subme=10 / psy=1 / psy_rd=0.80:0.00 / mixed_ref=1 / me_range=48 / chroma_me=1 / trellis=2 / 8x8dct=1 / cqm=0 / deadzone=21,11 / fast_pskip=0 / chroma_qp_offset=-2 / threads=12 / sliced_threads=0 / nr=0 / decimate=1 / interlaced=0 / constrained_intra=0 / bframes=6 / b_pyramid=2 / b_adapt=2 / b_bias=0 / direct=3 / wpredb=1 / wpredp=2 / keyint=250 / keyint_min=25 / scenecut=40 / intra_refresh=0 / rc=2pass / mbtree=0 / bitrate=11000 / ratetol=1.0 / qcomp=0.60 / qpmin=10 / qpmax=51 / qpstep=4 / cplxblur=20.0 / qblur=0.5 / ip_ratio=1.40 / pb_ratio=1.30 / aq=1:0.70
Language                                : English
Default                                  : No
Forced                                  : No

Audio
ID                                      : 2
Format                                  : DTS
Format/Info                              : Digital Theater Systems
Mode                                    : 16
Format settings, Endianness              : Big
Codec ID                                : A_DTS
Duration                                : 2h 0mn
Bit rate mode                            : Constant
Bit rate                                : 1 509 Kbps
Channel(s)                              : 6 channels
Channel positions                        : Front: L C R, Side: L R, LFE
Sampling rate                            : 48.0 KHz
Bit depth                                : 24 bits
Compression mode                        : Lossy
Stream size                              : 1.27 GiB (12%)
Title                                    : DTS core 5.1 @ 1.5 Mbps
Language                                : Korean
Default                                  : Yes
Forced                                  : No

Text
ID                                      : 3
Format                                  : UTF-8
Codec ID                                : S_TEXT/UTF8
Codec ID/Info                            : UTF-8 Plain Text
Language                                : English
Default                                  : Yes
Forced                                  : No

Menu
00:00:00.000                            : :00:00:00.000
00:05:08.934                            : :00:05:08.934
00:09:35.617                            : :00:09:35.617
00:12:15.026                            : :00:12:15.026
00:17:08.194                            : :00:17:08.194
00:21:48.432                            : :00:21:48.432
00:26:33.050                            : :00:26:33.050
00:33:52.948                            : :00:33:52.948
00:37:50.602                            : :00:37:50.602
00:44:10.690                            : :00:44:10.690
00:46:03.636                            : :00:46:03.636
00:52:13.339                            : :00:52:13.339
00:54:41.945                            : :00:54:41.945
00:58:44.813                            : :00:58:44.813
01:04:06.718                            : :01:04:06.718
01:06:46.252                            : :01:06:46.252
01:13:57.308                            : :01:13:57.308
01:20:05.718                            : :01:20:05.718
01:27:45.177                            : :01:27:45.177
01:35:22.383                            : :01:35:22.383
01:39:55.698                            : :01:39:55.698
01:44:08.325                            : :01:44:08.325
01:48:10.275                            : :01:48:10.275
01:53:14.913                            : :01:53:14.913
01:56:15.552                            : :01:56:15.552

Code:

English

Uploadable Uploaded Uptobox Uplea




Code:

https://safelinking.net/p/9f0d4ac089

No Password

PM me here if links are down.

Enjoy

http://x264-bb.com/movies-scene-rele…ml#post2749235