Whale.Rider.2002.German.720p.BluRay.x264-CONTRiBUTiON

Neuseelands Ureinwohner, die Maori glauben, dass ihre Vorfahren in Kanus über das Meer kamen. Die Einwohner von Whangara und der Ostküste hingegen glauben, dass ihr Urahne Paikea vor über tausend Jahren das Land auf dem Rücken eines Wales, der ihn nach dem Kentern seines Kanus gerettet hatte, erreichte. Seither trägt in jeder Generation ein männlicher Nachfahre des Walreiters diesen Titel und ist Oberhaupt des Stammes.
Nun ist die Zeit für einen neuen Erben gekommen. Als jedoch der Hoffnungsträger bei der Geburt stirbt und nur dessen Zwillingsschwester überlebt, sieht sich Stammesführer Koro nicht imstande, seine Enkelin Pai als zukünftiges Oberhaupt zu akzeptieren.
Koro, überzeugt davon, dass das Unglück seines Stammes mit der Geburt Pais begann, ruft sein Volk dazu auf, ihm seine Söhne zu bringen, um unter ihnen den neuen Anführer zu ermitteln. Dieser soll den Stamm wieder aus all seinen Schwierigkeiten herausführen.
Die 12-jährige Pai, die ihren Großvater Koro mehr als jeden Anderen auf der Welt liebt, muss sich nun gegen diesen und eine tausendjährige Tradition auflehnen, um ihre Bestimmung zu erfüllen.

Titel: Whale Rider
Genre: Drama | Family
Laufzeit: 101 Min.
Sprache/n: Deutsch
Video Stream: BD
Audio Stream: DD 5.1
Video Codec: MPEG-4 H.264 / AVC
Größe: 2.37 Gb
Parts: 1, 5

NFO

Code:

General
Complete name                            : /tmp/mediainfolink
Format                                  : Matroska
Format version                          : Version 2
File size                                : 2.37 GiB
Duration                                : 1h 41mn
Overall bit rate                        : 3 350 Kbps
Writing application                      : mkvmerge v6.6.0 (‘The Edge Of The In Between’) built on Dec 1 2013 17:55:00
Writing library                          : libebml v1.3.0 + libmatroska v1.4.1

Video
ID                                      : 1
Format                                  : AVC
Format/Info                              : Advanced Video Codec
Format profile                          : High@L4.1
Format settings, CABAC                  : Yes
Format settings, ReFrames                : 5 frames
Codec ID                                : V_MPEG4/ISO/AVC
Duration                                : 1h 41mn
Bit rate                                : 2 836 Kbps
Width                                    : 1 280 pixels
Height                                  : 544 pixels
Display aspect ratio                    : 2.35:1
Frame rate mode                          : Constant
Frame rate                              : 24.000 fps
Color space                              : YUV
Chroma subsampling                      : 4:2:0
Bit depth                                : 8 bits
Scan type                                : Progressive
Bits/(Pixel*Frame)                      : 0.170
Stream size                              : 2.01 GiB (85%)
Writing library                          : x264 core 144 r2525 40bb568
Encoding settings                        : cabac=1 / ref=5 / deblock=1:-3:-3 / analyse=0x3:0x133 / me=umh / subme=8 / psy=1 / psy_rd=1.00:0.15 / mixed_ref=1 / me_range=16 / chroma_me=1 / trellis=1 / 8x8dct=1 / cqm=0 / deadzone=21,11 / fast_pskip=0 / chroma_qp_offset=-3 / threads=12 / lookahead_threads=2 / sliced_threads=0 / nr=0 / decimate=1 / interlaced=0 / bluray_compat=0 / constrained_intra=0 / bframes=3 / b_pyramid=2 / b_adapt=2 / b_bias=0 / direct=3 / weightb=1 / open_gop=0 / weightp=2 / keyint=240 / keyint_min=24 / scenecut=40 / intra_refresh=0 / rc_lookahead=50 / rc=crf / mbtree=1 / crf=20.0 / qcomp=0.60 / qpmin=0 / qpmax=69 / qpstep=4 / ip_ratio=1.40 / aq=1:1.00
Language                                : English
Default                                  : Yes
Forced                                  : No

Audio
ID                                      : 2
Format                                  : AC-3
Format/Info                              : Audio Coding 3
Mode extension                          : CM (complete main)
Format settings, Endianness              : Big
Codec ID                                : A_AC3
Duration                                : 1h 41mn
Bit rate mode                            : Constant
Bit rate                                : 448 Kbps
Channel(s)                              : 6 channels
Channel positions                        : Front: L C R, Side: L R, LFE
Sampling rate                            : 48.0 KHz
Bit depth                                : 16 bits
Compression mode                        : Lossy
Stream size                              : 325 MiB (13%)
Language                                : German
Default                                  : Yes
Forced                                  : No

Text
ID                                      : 3
Format                                  : UTF-8
Codec ID                                : S_TEXT/UTF8
Codec ID/Info                            : UTF-8 Plain Text
Title                                    : Forced
Language                                : German
Default                                  : Yes
Forced                                  : No

Menu
00:00:00.000                            : en:00:00:00.000
00:03:21.250                            : en:00:03:21.250
00:09:12.708                            : en:00:09:12.708
00:14:57.833                            : en:00:14:57.833
00:19:48.833                            : en:00:19:48.833
00:27:42.208                            : en:00:27:42.208
00:32:47.583                            : en:00:32:47.583
00:41:02.917                            : en:00:41:02.917
00:47:40.125                            : en:00:47:40.125
00:55:06.667                            : en:00:55:06.667
00:59:40.667                            : en:00:59:40.667
01:06:33.958                            : en:01:06:33.958
01:15:43.125                            : en:01:15:43.125
01:24:22.917                            : en:01:24:22.917
01:32:02.083                            : en:01:32:02.083
01:37:46.083                            : en:01:37:46.083


Uploaded.net (1 part)


Uploaded.net


Share-online.biz


Rapidgator.net