Fuck.Up.2012.German.Subbed.DVDRip.XviD.PROPER-TiG

Titel: Fuck Up
Genre: Drama
Laufzeit: 87 Min.
Sprache/n: Deutsch
Video Stream: DVD-RIP
Audio Stream: Stereo
Video Codec: MPEG-4 DivX / Xvid
Hoster: Uploaded.net, Share-online.biz
Größe: 1000,35 MB
Parts: 5 Dateien
Passwort: – wird nicht benötigt –

Eine Gruppe schwul-lesbischer Teenager versucht in den 90er Jahren in Los Angeles mit den Problemen des Heranwachsens fertig zu werden. Sie sind auf der Suche nach ihrer sexuellen Identität und der “großen Liebe”. Ihre Eltern haben sie rausgeworfen, sie sind pleite, leben in ständiger Angst vor der homofeindlichen Umwelt und ziehen über alles her, was sie bewegt – Safe Sex, Drogen, Liebe, Selbstbefriedigung und AIDS.

Gregg Araki, die Ikone des “Queer Cinema”, zeigt in seinem pseudo-dokumentarischen Film, wie sich Jugendliche durch “teen angst” dem Leben entfremden. Der Streifen wurde im Guerrilla-Stil auf der Straße gedreht und reflektiert den surrealen Zustand vom Leben in einer ungewöhnlichen und ausgeflippten Welt. Eine ironische, leidenschaftliche, humorvolle und bewegende Studie über eine ungeliebte Generation.

Format : AVI
Format/Info : Audio Video Interleave
File size : 699 MiB
Duration : 1h 35mn
Overall bit rate : 1 019 Kbps
Writing application : transcode-1.1.5

Video
ID : 0
Format : MPEG-4 Visual
Format profile : Advanced Simple@L5
Format settings, BVOP : 1
Format settings, QPel : No
Format settings, GMC : No warppoints
Format settings, Matrix : Default (H.263)
Codec ID : XVID
Codec ID/Hint : XviD
Duration : 1h 35mn
Bit rate : 881 Kbps
Width : 624 pixels
Height : 352 pixels
Display aspect ratio : 16:9
Frame rate : 25.000 fps
Color space : YUV
Chroma subsampling : 4:2:0
Bit depth : 8 bits
Scan type : Progressive
Compression mode : Lossy
Bits/(Pixel*Frame) : 0.160
Stream size : 605 MiB (86%)
Writing library : XviD 64

Audio
ID : 1
Format : MPEG Audio
Format version : Version 1
Format profile : Layer 3
Mode : Joint stereo
Codec ID : 55
Codec ID/Hint : MP3
Duration : 1h 35mn
Bit rate mode : Constant
Bit rate : 128 Kbps
Channel(s) : 2 channels
Sampling rate : 48.0 KHz
Compression mode : Lossy
Stream size : 87.9 MiB (13%)
Alignment : Split accross interleaves
Interleave, duration : 40 ms (1.00 video frame)
Writing library : LAME3.99.3

F21GSDDXPOE.part1.rar (250,00 MB) – uploaded.net
F21GSDDXPOE.part2.rar (250,00 MB) – uploaded.net
F21GSDDXPOE.part3.rar (250,00 MB) – uploaded.net
F21GSDDXPOE.part4.rar (250,00 MB) – uploaded.net
F21GSDDXPOE.part5.rar (360,91 KB) – uploaded.net

Share-Online – dl/RWBSUEINUW
Share-Online – dl/XDLSUEINJS7
Share-Online – dl/FARSUEIN7K
Share-Online – dl/CR1TUEINTVQ9
Share-Online – dl/AF2TUEINCIV