Redirected 2014 1080p WEB-DL DD5 1 H264-RARBG





Code:

Video
ID                                      : 1
Format                                  : AVC
Format/Info                              : Advanced Video Codec
Format profile                          : High@L4.0
Format settings, CABAC                  : Yes
Format settings, ReFrames                : 5 frames
Codec ID                                : V_MPEG4/ISO/AVC
Duration                                : 1h 39mn
Bit rate                                : 4 338 Kbps
Width                                    : 1 912 pixels
Height                                  : 800 pixels
Display aspect ratio                    : 2.40:1
Frame rate mode                          : Constant
Frame rate                              : 23.976 fps
Color space                              : YUV
Chroma subsampling                      : 4:2:0
Bit depth                                : 8 bits
Scan type                                : Progressive
Bits/(Pixel*Frame)                      : 0.118
Stream size                              : 3.00 GiB (90%)
Title                                    : Redirected.2014.1080p.WEB-DL.DD5.1.H264-RARBG
Language                                : English
Default                                  : Yes
Forced                                  : No
Color primaries                          : BT.709
Transfer characteristics                : BT.709
Matrix coefficients                      : BT.709

Audio
ID                                      : 2
Format                                  : AC-3
Format/Info                              : Audio Coding 3
Mode extension                          : CM (complete main)
Format settings, Endianness              : Big
Codec ID                                : A_AC3
Duration                                : 1h 39mn
Bit rate mode                            : Constant
Bit rate                                : 384 Kbps
Channel(s)                              : 6 channels
Channel positions                        : Front: L C R, Side: L R, LFE
Sampling rate                            : 48.0 KHz
Bit depth                                : 16 bits
Compression mode                        : Lossy
Stream size                              : 272 MiB (8%)
Title                                    : Redirected.2014.1080p.WEB-DL.DD5.1.H264-RARBG
Language                                : English
Default                                  : Yes
Forced                                  : No

Text
ID                                      : 3
Format                                  : UTF-8
Codec ID                                : S_TEXT/UTF8
Codec ID/Info                            : UTF-8 Plain Text
Language                                : English
Default                                  : No
Forced                                  : No

Menu
00:00:00.000                            : en:1
00:08:22.000                            : en:2
00:20:00.000                            : en:3
00:28:31.000                            : en:4
00:35:29.000                            : en:5
00:42:18.000                            : en:6
00:51:32.000                            : en:7
00:59:33.000                            : en:8
01:12:11.000                            : en:9
01:19:25.000                            : en:10
01:32:16.000                            : en:11

Code:

Redirected.2014.1080p.WEB-DL.DD5.1.H264-RARBG.mkv
English.srt