Título original The Hobbit: The Desolation of Smaug (The Hobbit 2)
Año 2013
Duración 160 min.
País
Director Peter Jackson
Guión Philippa Boyens, Peter Jackson, Fran Walsh, Guillermo del Toro (Novela: J.R.R. Tolkien)
Música Howard Shore
Fotografía Andrew Lesnie
Reparto Martin Freeman, Richard Armitage, Ian McKellen, Aidan Turner, Luke Evans, Evangeline Lilly, Ken Stott, Orlando Bloom, Graham McTavish, James Nesbitt, Jed Brophy, Stephen Hunter, Ken Stott, John Callen, Adam Brown, Dean O’Gorman, William Kircher, Peter Hambleton, Mark Hadlow, Lee Pace, Ryan Gage, Stephen Fry, Mikael Persbrandt, Sylvester McCoy, Manu Bennett
Productora Metro-Goldwyn-Mayer (MGM) / New Line Cinema / WingNut Films
Género Fantástico. Aventuras. Acción | Espada y brujería. Dragones. Secuela. 3-D

Premios
2013: Oscars: 3 nominaciones, sonido, efectos sonoros y visuales
2013: Premios BAFTA: Nominada a Mejores efectos visuales y mejor maquillaje
2013: Critics Choice: 5 nominaciones, incluyendo Mejor actriz de acción (Evangeline Lilly)
2013: Satellite Awards: Nominada a Mejor canción original

After successfully crossing over (and under) the Misty Mountains, Thorin and Company must seek aid from a powerful stranger before taking on the dangers of Mirkwood Forest–without their Wizard. If they reach the human settlement of Lake-town it will be time for the hobbit Bilbo Baggins to fulfill his contract with the dwarves. The party must complete the journey to Lonely Mountain and burglar Baggins must seek out the Secret Door that will give them access to the hoard of the dragon Smaug. And, where has Gandalf got off to? And what is his secret business to the south?

We all remember how George Lucas created an amazing trilogy called “Star Wars,” then went back later to do a prequel trilogy and tried to destroy the franchise by focusing on ridiculous visual effects and neglecting the story entirely; so too has Peter Jackson fallen.

The five points I have given are purely for the visual aspect of the movie. It is amazing. But we all expected that.

0/5 for story. Tolkien wrote an amazing little (LITTLE) book called the Hobbit. Jackson could have fit the important and relevant parts of “An Unexpected Journey” into about an hour. It is the same here. There is a ridiculous amount of filler, needless side-plots, and a stupid (for lack of a better word) love triangle that makes a Ryan Reynolds romantic comedy seem deep. And I mean OK, I expect filler if you’re going to turn a tiny book into three three hour movies, but at least keep what happens in the book if you’re going to make stuff up. A few times scenes that were actually written by Tolkien feel rushed and cut short, while filler scenes seem to drag endlessly.

Smaug had the potential to be great, and started out that way, but the gross on screen overuse of his character makes you think of a brainless rat running through a maze searching for cheese rather than the majestic dragon we all grew up reading about.

I could keep on listing things I did not like (like bringing Legolas into the film to draw fans, and then overusing every cool thing he ever did in LOTR until you’re sitting in your seat begging him to stop {ex, he surfs on EVERTYTHING}) but I am going to stop.

Go see the movie on principle, but don’t go looking for the nostalgia of LOTR like I did. Because even though it should be there, any chance these films had of greatness was lost in the desperate attempt to turn what should have been one great film into a three year money making machine.

Code:

Complete name                            : El Hobbit 2 la Desolación de Smaug VE (2013) – BDRemux.m2ts
Format                                  : BDAV
Format/Info                              : Blu-ray Video
File size                                : 44.3 GiB
Duration                                : 3h 6mn
Overall bit rate mode                    : Variable
Overall bit rate                        : 34.0 Mbps
Maximum Overall bit rate                : 35.5 Mbps

Video
ID                                      : 4113 (0x1011)
Menu ID                                  : 1 (0x1)
Format                                  : AVC
Format/Info                              : Advanced Video Codec
Format profile                          : High@L4.1
Format settings, CABAC                  : Yes
Format settings, ReFrames                : 2 frames
Codec ID                                : 27
Duration                                : 3h 6mn
Bit rate mode                            : Variable
Width                                    : 1 920 pixels
Height                                  : 1 080 pixels
Display aspect ratio                    : 16:9
Frame rate                              : 23.976 fps
Color space                              : YUV
Chroma subsampling                      : 4:2:0
Bit depth                                : 8 bits
Scan type                                : Progressive
Language                                : English

Audio #1
ID                                      : 4352 (0x1100)
Menu ID                                  : 1 (0x1)
Format                                  : DTS
Format/Info                              : Digital Theater Systems
Format profile                          : HRA / Core
Mode                                    : 16
Format settings, Endianness              : Big
Muxing mode                              : Stream extension
Codec ID                                : 133
Duration                                : 3h 6mn
Bit rate mode                            : Constant
Bit rate                                : 2 046 Kbps / 1 509 Kbps
Channel(s)                              : 6 channels
Channel positions                        : Front: L C R, Side: L R, LFE
Sampling rate                            : 48.0 KHz
Bit depth                                : 24 bits
Compression mode                        : Lossy
Delay relative to video                  : 21ms
Stream size                              : 2.67 GiB (6%)
Language                                : Spanish Castellano Montaje DTS propio

Audio #2
ID                                      : 4353 (0x1101)
Menu ID                                  : 1 (0x1)
Format                                  : DTS
Format/Info                              : Digital Theater Systems
Format profile                          : MA / Core
Mode                                    : 16
Format settings, Endianness              : Big
Muxing mode                              : Stream extension
Codec ID                                : 134
Duration                                : 3h 6mn
Bit rate mode                            : Variable
Bit rate                                : Unknown / 1 509 Kbps
Channel(s)                              : 8 channels / 6 channels
Channel positions                        : Front: L C R, Side: L R, Back: L R, LFE / Front: L C R, Side: L R, LFE
Sampling rate                            : 48.0 KHz
Bit depth                                : 24 bits
Compression mode                        : Lossless / Lossy
Language                                : English

Audio #3
ID                                      : 4354 (0x1102)
Menu ID                                  : 1 (0x1)
Format                                  : DTS
Format/Info                              : Digital Theater Systems
Format profile                          : MA / Core
Mode                                    : 16
Format settings, Endianness              : Big
Muxing mode                              : Stream extension
Codec ID                                : 134
Duration                                : 3h 6mn
Bit rate mode                            : Variable
Bit rate                                : Unknown / 1 509 Kbps
Channel(s)                              : 8 channels / 6 channels
Channel positions                        : Front: L C R, Side: L R, Back: L R, LFE / Front: L C R, Side: L R, LFE
Sampling rate                            : 48.0 KHz
Bit depth                                : 16 bits
Compression mode                        : Lossless / Lossy
Language                                : German

Audio #4
ID                                      : 4355 (0x1103)
Menu ID                                  : 1 (0x1)
Format                                  : AC-3
Format/Info                              : Audio Coding 3
Mode extension                          : CM (complete main)
Format settings, Endianness              : Big
Codec ID                                : 129
Duration                                : 3h 6mn
Bit rate mode                            : Constant
Bit rate                                : 640 Kbps
Channel(s)                              : 6 channels
Channel positions                        : Front: L C R, Side: L R, LFE
Sampling rate                            : 48.0 KHz
Bit depth                                : 16 bits
Compression mode                        : Lossy
Stream size                              : 854 MiB (2%)
Language                                : English

Audio #5
ID                                      : 4356 (0x1104)
Menu ID                                  : 1 (0x1)
Format                                  : AC-3
Format/Info                              : Audio Coding 3
Mode extension                          : CM (complete main)
Format settings, Endianness              : Big
Codec ID                                : 129
Duration                                : 3h 6mn
Bit rate mode                            : Constant
Bit rate                                : 448 Kbps
Channel(s)                              : 6 channels
Channel positions                        : Front: L C R, Side: L R, LFE
Sampling rate                            : 48.0 KHz
Bit depth                                : 16 bits
Compression mode                        : Lossy
Stream size                              : 598 MiB (1%)
Language                                : Spanish Castellano

Text #1
ID                                      : 4608 (0x1200)
Menu ID                                  : 1 (0x1)
Format                                  : PGS
Codec ID                                : 144
Language                                : English

Text #2
ID                                      : 4609 (0x1201)
Menu ID                                  : 1 (0x1)
Format                                  : PGS
Codec ID                                : 144
Language                                : German

Text #3
ID                                      : 4610 (0x1202)
Menu ID                                  : 1 (0x1)
Format                                  : PGS
Codec ID                                : 144
Language                                : Spanish

Text #4
ID                                      : 4611 (0x1203)
Menu ID                                  : 1 (0x1)
Format                                  : PGS
Codec ID                                : 144
Language                                : Danish

Text #5
ID                                      : 4612 (0x1204)
Menu ID                                  : 1 (0x1)
Format                                  : PGS
Codec ID                                : 144
Language                                : Finnish

Text #6
ID                                      : 4613 (0x1205)
Menu ID                                  : 1 (0x1)
Format                                  : PGS
Codec ID                                : 144
Language                                : Icelandic

Text #7
ID                                      : 4614 (0x1206)
Menu ID                                  : 1 (0x1)
Format                                  : PGS
Codec ID                                : 144
Language                                : Norwegian

Text #8
ID                                      : 4615 (0x1207)
Menu ID                                  : 1 (0x1)
Format                                  : PGS
Codec ID                                : 144
Language                                : Swedish

Text #9
ID                                      : 4616 (0x1208)
Menu ID                                  : 1 (0x1)
Format                                  : PGS
Codec ID                                : 144
Language                                : German Forzados

Text #10
ID                                      : 4617 (0x1209)
Menu ID                                  : 1 (0x1)
Format                                  : PGS
Codec ID                                : 144
Language                                : Spanish Forzados

Links de 255 Mb
Interchangeable
Uploaded TusFiles Uploadable 1fichier

Total Files: 138
127 Files .RAR 255 Mb + 1 File .RAR de 37.12 Mb
8 Recovery Files .REV
5% Recovery Registry in each .rar
Cut With: WINRAR 5


WINRAR 5 WINDOWS (Official Shareware)

Code:

http://downloads.winrar.es/descargas/52

WINRAR 5 MAC OX (Official Shareware)

Code:

http://www.rarlab.com/rar/rarosx-5.0.1.tar.gz

WINRAR5 INSTALATION TIPS ON MAC OX

Code:

http://pastebin.com/k87uFyRq




Code:

http://www.miniurls.co/A4mF4

There is only 1 file in the link. It is a .dlc file. Load it in Jdownloader, Jdownloader or Mipony two. Then you will see all the links of different host.

Jdownloader can not decompress rar. Winrar5 necessarily need to do so.