Monster High: Fusión monstruosa (2014)[BDRIP/1080p][Cast(DtS-Ac3 5.1)Eng(DtSMA)][Subt][Animación.Infantil]

Cita:

Título original: Monster High: Freaky Fusion
Año: 2014
Duración: 73 min.
País: Estados Unidos
Director: William Lau, Sylvain Blais
Guión: Keith Wagner
Fotografía: Animation
Reparto: Animation
Productora: Mattel Playground Productions
Género: Animación. Infantil | Monstruos

Sinopsis

Cita:

Al intentar ayudar a Frankie a aprender más acerca de su legado electrizante, las monstruo-amigas viajan en el tiempo hasta el primer día de Monster

High hace doscientos años. Allí conocen a Sparky, un adolescente de miedo con una obsesión por la creación de vida.

Datos de la descarga:

Formato: Matroska BDRip 1080p
Tamaño: 6.76 GiB
Resolución: 1920×1080
Audio 1: AC3 5.1 448 Kbps Castellano
Audio 2: DTS 5.1 768 Kbps Castellano
Audio 3: AC3 5.1 448 Kbps Catalan
Audio 4: DTS 5.1 768 Kbps Catalan
Audio 5: DTS-MA 5.1 1509 Kbps Ingles
Subs: Español de España é Ingles.

Compresión: WinRar 5.01.v.final
[Uploaded.to – Easybytez – Tusfiles – Free UptoBox 98%
Links: Intercambiables
Recuperacion: 2 Archivos REV + 5%

Datos Tecnicos

Spoiler

General

Format : Matroska
Format version : Version 4 / Version 2
File size : 6.76 GiB
Duration : 1h 13mn
Overall bit rate mode : Variable
Overall bit rate : 13.2 Mbps
Encoded date : UTC 2014-12-16 17:30:47
Writing application : mkvmerge v6.3.0 (‘You can’t stop me!’) built on Jun 28 2013 20:09:41
Writing library : libebml v1.3.0 + libmatroska v1.4.0

Video
ID : 1
Format : AVC
Format/Info : Advanced Video Codec
Format profile : High@L4.1
Format settings, CABAC : Yes
Format settings, ReFrames : 4 frames
Codec ID : V_MPEG4/ISO/AVC
Duration : 1h 13mn
Nominal bit rate : 6 992 Kbps
Width : 1 920 pixels
Height : 1 080 pixels
Display aspect ratio : 16:9
Frame rate mode : Constant
Frame rate : 23.976 fps
Color space : YUV
Chroma subsampling : 4:2:0
Bit depth : 8 bits
Scan type : Progressive
Bits/(Pixel*Frame) : 0.141
Writing library : x264 core 142 r2479 dd79a61
Encoding settings : cabac=1 / ref=4 / deblock=1:0:0 / analyse=0x3:0x133 / me=umh / subme=7 / psy=1 / psy_rd=1.00:0.00 /

mixed_ref=1 / me_range=16 / chroma_me=1 / trellis=1 / 8x8dct=1 / cqm=0 / deadzone=21,11 / fast_pskip=0 / chroma_qp_offset=-2 / threads=18 /

lookahead_threads=3 / sliced_threads=0 / nr=0 / decimate=1 / interlaced=0 / bluray_compat=0 / constrained_intra=0 / bframes=3 / b_pyramid=2 /

b_adapt=1 / b_bias=0 / direct=1 / weightb=1 / open_gop=0 / weightp=2 / keyint=250 / keyint_min=23 / scenecut=40 / intra_refresh=0 / rc_lookahead=40

/ rc=2pass / mbtree=1 / bitrate=6992 / ratetol=1.0 / qcomp=0.60 / qpmin=0 / qpmax=69 / qpstep=4 / cplxblur=20.0 / qblur=0.5 / ip_ratio=1.40 /

aq=1:1.00
Language : English
Default : Yes
Forced : No

Audio #1
ID : 2
Format : AC-3
Format/Info : Audio Coding 3
Mode extension : CM (complete main)
Format settings, Endianness : Big
Codec ID : A_AC3
Duration : 1h 13mn
Bit rate mode : Constant
Bit rate : 448 Kbps
Channel count : 6 channels
Channel positions : Front: L C R, Side: L R, LFE
Sampling rate : 48.0 KHz
Bit depth : 16 bits
Compression mode : Lossy
Stream size : 236 MiB (3%)
Language : Spanish
Default : No
Forced : No

Audio #2
ID : 3
Format : DTS
Format/Info : Digital Theater Systems
Mode : 16
Format settings, Endianness : Big
Codec ID : A_DTS
Duration : 1h 13mn
Bit rate mode : Constant
Bit rate : 768 Kbps
Channel count : 6 channels
Channel positions : Front: L C R, Side: L R, LFE
Sampling rate : 48.0 KHz
Bit depth : 24 bits
Compression mode : Lossy
Stream size : 404 MiB (6%)
Language : Spanish
Default : Yes
Forced : Yes

Audio #3
ID : 4
Format : AC-3
Format/Info : Audio Coding 3
Mode extension : CM (complete main)
Format settings, Endianness : Big
Codec ID : A_AC3
Duration : 1h 13mn
Bit rate mode : Constant
Bit rate : 448 Kbps
Channel count : 6 channels
Channel positions : Front: L C R, Side: L R, LFE
Sampling rate : 48.0 KHz
Bit depth : 16 bits
Compression mode : Lossy
Stream size : 236 MiB (3%)
Language : Catalan
Default : No
Forced : No

Audio #4
ID : 5
Format : DTS
Format/Info : Digital Theater Systems
Mode : 16
Format settings, Endianness : Big
Codec ID : A_DTS
Duration : 1h 13mn
Bit rate mode : Constant
Bit rate : 768 Kbps
Channel count : 6 channels
Channel positions : Front: L C R, Side: L R, LFE
Sampling rate : 48.0 KHz
Bit depth : 24 bits
Compression mode : Lossy
Stream size : 404 MiB (6%)
Language : Catalan
Default : No
Forced : No

Audio #5
ID : 6
Format : DTS
Format/Info : Digital Theater Systems
Format profile : MA / Core
Mode : 16
Format settings, Endianness : Big
Codec ID : A_DTS
Duration : 1h 13mn
Bit rate mode : Variable
Bit rate : Unknown / 1 509 Kbps
Channel count : 6 channels
Channel positions : Front: L C R, Side: L R, LFE
Sampling rate : 48.0 KHz
Bit depth : 24 bits
Compression mode : Lossless / Lossy
Language : English
Default : No
Forced : No

Text #1
ID : 7
Format : UTF-8
Codec ID : S_TEXT/UTF8
Codec ID/Info : UTF-8 Plain Text
Language : Spanish
Default : No
Forced : No

Text #2
ID : 8
Format : UTF-8
Codec ID : S_TEXT/UTF8
Codec ID/Info : UTF-8 Plain Text
Title : English
Language : English
Default : No
Forced : No

Menu
00:00:00.000 : en:00:00:00.000
00:05:31.957 : en:00:05:31.957
00:11:54.005 : en:00:11:54.005
00:17:59.495 : en:00:17:59.495
00:25:46.670 : en:00:25:46.670
00:33:06.151 : en:00:33:06.151
00:40:07.363 : en:00:40:07.363
00:45:30.853 : en:00:45:30.853
00:50:50.005 : en:00:50:50.005
00:56:56.163 : en:00:56:56.163
01:03:23.049 : en:01:03:23.049
01:12:29.637 : en:01:12:29.637

Capturas

Uploaded.to – Easybytez – Tusfiles – Free UptoBox 98%

Enlaces de 251 Mb Intercambiables

UPLOADED

Código:

pe9mso58
s0t4ehkd
vhqclcx9
5cef5912
1mrnovpn
7bn8dt95
z1kjbut8
yo92mmah
f2w5dr4m
mkyldrl3
4x46ckdh
49rz67tg
iwu26klm
xx8df8x8
qsykw1pd
wk3a0ezy
6jnerbc9
fhe0ik9l
frkx6fst
phbgbhem
0do9oz5p
g8sghet6
lmow2cme
3gjevfbe
vxx1gdq9
zuqvu3ew
571gy4iq
18qi0ypj
1igkuqlx
n3qo2lc7
mzjzp6q2

EASYBITEZ

Código:

http://www.easybytez.com/9we9cwojzzo7
http://www.easybytez.com/nh2s5pat4wmp
http://www.easybytez.com/53dl8xic3c7y
http://www.easybytez.com/fcjgpt2z6ij8
http://www.easybytez.com/lzuv1wnvbawo
http://www.easybytez.com/kx85rxiapm1o
http://www.easybytez.com/3nwsgptdjc5e
http://www.easybytez.com/2tn4pefmdgxo
http://www.easybytez.com/54tyoleopbml
http://www.easybytez.com/7owlodein36p
http://www.easybytez.com/moa2kl23llxl
http://www.easybytez.com/dtgv7taj775k
http://www.easybytez.com/az52yj7371aw
http://www.easybytez.com/nvmyq586zqwx
http://www.easybytez.com/oyd1fbbbwre9
http://www.easybytez.com/dmb0jvj389yi
http://www.easybytez.com/cf1tuy6fcuo0
http://www.easybytez.com/lpzk1jufpdm6
http://www.easybytez.com/jx6uj9y3mafi
http://www.easybytez.com/efyckzgwpqys
http://www.easybytez.com/wxpmm0lbji4k
http://www.easybytez.com/r6tge2vuezbt
http://www.easybytez.com/mlylhm05mz2j
http://www.easybytez.com/u4e13z1awf6x
http://www.easybytez.com/byp223y69kk9
http://www.easybytez.com/r1r7rgh7rdvi
http://www.easybytez.com/wjq44bb1y38o
http://www.easybytez.com/c8ddpktzadam
http://www.easybytez.com/g1o3h2d6vwmv
http://www.easybytez.com/232o2u3nela5
http://www.easybytez.com/ksqctmwy8yvs

TUSFILES a falta del primer archivo

Código:

pe9mso58

ó

http://www.easybytez.com/9we9cwojzzo7

https://www.tusfiles.net/n7nnznyzlhks
https://www.tusfiles.net/uwmeras3foey
https://www.tusfiles.net/moblc2ckt6hn
https://www.tusfiles.net/sjazraotg8s7
https://www.tusfiles.net/596fyuj7rgfu
https://www.tusfiles.net/7uiz7d8zr4z3
https://www.tusfiles.net/vzdqnytdww2y
https://www.tusfiles.net/u95mb27yfprp
https://www.tusfiles.net/ofojekio8lha
https://www.tusfiles.net/55pm5stm1btb
https://www.tusfiles.net/5zovobbpzgve
https://www.tusfiles.net/7agbztrofchd
https://www.tusfiles.net/hl06lsmeoudp
https://www.tusfiles.net/fsjq22efgcaq
https://www.tusfiles.net/58kwc7lvzhlo
https://www.tusfiles.net/3ql2bm1xpl4t
https://www.tusfiles.net/eeje1pe8rlvd
https://www.tusfiles.net/mtp1m9vwi02p
https://www.tusfiles.net/wvltskx4p2hk
https://www.tusfiles.net/zivuft9q8xoq
https://www.tusfiles.net/bl3b7xwuahdp
https://www.tusfiles.net/l7vhuvhvd9p4
https://www.tusfiles.net/rrcvdk2w0lru
https://www.tusfiles.net/5s1bu1d7l6n3
https://www.tusfiles.net/k6dw4slc3ve5
https://www.tusfiles.net/nefdq7jmzfmj
https://www.tusfiles.net/ndjcsr13lwgl
https://www.tusfiles.net/hcoeei2305vm

FREE UPTOBOX a falta de los 2 primeros Archivos

Código:

pe9mso58
vhqclcx9

ó

http://www.easybytez.com/9we9cwojzzo7
http://www.easybytez.com/53dl8xic3c7y

http://uptobox.com/w479abjtkplp
http://uptobox.com/smyv8dp3i6wv
http://uptobox.com/axuxo2dcelvj
http://uptobox.com/a94gelzm4tfl
http://uptobox.com/nek1tbz8hqv4
http://uptobox.com/bm4krarlusm2
http://uptobox.com/hzg5qz7jh867
http://uptobox.com/nbcp2hisaxy7
http://uptobox.com/jlo98zdr9qss
http://uptobox.com/92dzc4kbpi9l
http://uptobox.com/x8qqeffggkzw
http://uptobox.com/iwedutms0ely
http://uptobox.com/jpjmhyw7pq9p
http://uptobox.com/z7kjpt695pxu
http://uptobox.com/ax7ayac2va6z
http://uptobox.com/9fnbyl9xurut
http://uptobox.com/gu6ar4th67bn
http://uptobox.com/68ppfm1bh030
http://uptobox.com/jakblkqls8nh
http://uptobox.com/jqxbsuhgltg6
http://uptobox.com/j6gjw7pkkj3d
http://uptobox.com/o4bojkwqpnu6
http://uptobox.com/dz2o26se1sgh
http://uptobox.com/p42nwksgviyb
http://uptobox.com/71kzwcff1kr5
http://uptobox.com/7bfeumodrg8s
http://uptobox.com/7i8t2e63th8g