Los Boxtrolls 3D (2014)[Haf-SBS BDRIP/1080p][Lat(Ac3 5.1)Eng(DtS)][Subt3D][Animación.Fantástico]

Cita:

Título: Los Boxtrolls
Título original: The Boxtrolls
País: USA
Estreno en USA: 26/09/2014
Estreno en España: 31/10/2014
Productora: LAIKA, Focus Features
Director: Anthony Stacchi, Graham Annable
Guión: Irena Brignull, Adam Pava
Reparto: (Voces de) Ben Kingsley, Isaac Hempstead-Wright, Elle Fanning, Toni Collette, Jared Harris, Simon Pegg, Nick Frost, Richard Ayoade, Tracy Morgan
Calificación: Apta para todos los públicos

Sinopsis

Cita:

Los Boxtrolls es una fábula cómica que transcurre en Cheesebridge (Puentequeso), una elegante ciudad de la era posvictorinana, obsesionada por el dinero, la clase y el más delicioso de los quesos apestosos. Debajo de sus encantadoras calles adoquinadas viven los Boxtrolls, unos repugnantes monstruos que salen de las alcantarillas por la noche para hacerse con los bienes más preciados de los habitantes: sus hijos y sus qesos.
Al menos, eso cree todo el mundo. Pero en realidad, los Boxtrolls son una comunidad que habita un espacio cavernoso en el subsuelo, compuesta por unos seres estrafalarios y adorables que llevan cajas de cartón reciclado como las tortugas llevan el caparazón. Los Boxtrolls han criado a un pequeño huérfano humano desde su más tierna infancia y le han acostumbrado a una vida dedicada a rebuscar en contenedores para hacerse con los objetos más inútiles. Pero cuando un malvado exterminador de plagas decide erradicarlos, convencido de que solo así podrá formar parte de la alta sociedad de Cheesebridge (Puentequeso), la amable y simpática panda de chatarreros deberá pedir ayuda a su hijo adoptivo y a una aventurera niña rica para crear un puente entre los dos mundos cambiantes… con olor a queso.

Datos de la descarga:

Formato: Matroska 3D Half SBS BDRip 1080p
Tamaño: 9.30 GiB
Resolución: 1920×1080
Audio 1: AC3 5.1 384 Kbps Latino
Audio 2: DTS 5.1 1509 Kbps Ingles
Subs: Español de España é Ingles SHD normales y en 3D.

Compresión: WinRar 5.01.v.final
[Uploaded.to – Easybytez – Tusfiles – MEGA – dl.Free – UptoBox 98%
Links: Intercambiables
Recuperacion: 2 Archivos REV + 5%

Datos Tecnicos

Spoiler

General

Format : Matroska
Format version : Version 4 / Version 2
File size : 9.30 GiB
Duration : 1h 36mn
Overall bit rate : 13.8 Mbps
Encoded date : UTC 2014-12-19 20:27:21
Writing application : mkvmerge v6.3.0 (‘You can’t stop me!’) built on Jun 28 2013 20:09:41
Writing library : libebml v1.3.0 + libmatroska v1.4.0

Video
ID : 1
Format : AVC
Format/Info : Advanced Video Codec
Format profile : High@L4.1
MultiView_Count : 2
MultiView_Layout : Side by Side (left eye first)
Format settings, CABAC : Yes
Format settings, ReFrames : 4 frames
Codec ID : V_MPEG4/ISO/AVC
Duration : 1h 36mn
Bit rate : 11.7 Mbps
Width : 1 920 pixels
Height : 1 080 pixels
Display aspect ratio : 16:9
Frame rate mode : Constant
Frame rate : 23.976 fps
Color space : YUV
Chroma subsampling : 4:2:0
Bit depth : 8 bits
Scan type : Progressive
Bits/(Pixel*Frame) : 0.235
Stream size : 7.85 GiB (84%)
Writing library : x264 core 133 r2334kMod a3ac64b
Encoding settings : cabac=1 / ref=4 / deblock=1:-3:-3 / analyse=0x3:0x133 / me=umh / subme=11 / psy=1 / fade_compensate=0.00 / psy_rd=1.00:0.00 / mixed_ref=1 / me_range=24 / chroma_me=1 / trellis=2 / 8x8dct=1 / cqm=0 / deadzone=21,11 / fast_pskip=0 / chroma_qp_offset=-2 / threads=24 / lookahead_threads=4 / sliced_threads=0 / nr=0 / decimate=0 / interlaced=0 / bluray_compat=0 / constrained_intra=0 / bframes=7 / b_pyramid=2 / b_adapt=2 / b_bias=0 / direct=3 / weightb=1 / open_gop=0 / weightp=2 / keyint=250 / keyint_min=23 / scenecut=40 / intra_refresh=0 / rc=crf / mbtree=0 / crf=18.7000 / qcomp=0.75 / qpmin=0 / qpmax=69 / qpstep=4 / frame-packing=3 / ip_ratio=1.30 / pb_ratio=1.10 / aq=1:1.00
Language : English
Default : Yes
Forced : No

Audio #1
ID : 2
Format : AC-3
Format/Info : Audio Coding 3
Mode extension : CM (complete main)
Format settings, Endianness : Big
Codec ID : A_AC3
Duration : 1h 36mn
Bit rate mode : Constant
Bit rate : 384 Kbps
Channel count : 6 channels
Channel positions : Front: L C R, Side: L R, LFE
Sampling rate : 48.0 KHz
Bit depth : 16 bits
Compression mode : Lossy
Delay relative to video : 24ms
Stream size : 264 MiB (3%)
Language : Latin
Default : Yes
Forced : No

Audio #2
ID : 3
Format : DTS
Format/Info : Digital Theater Systems
Mode : 16
Format settings, Endianness : Big
Codec ID : A_DTS
Duration : 1h 36mn
Bit rate mode : Constant
Bit rate : 1 509 Kbps
Channel count : 6 channels
Channel positions : Front: L C R, Side: L R, LFE
Sampling rate : 48.0 KHz
Bit depth : 24 bits
Compression mode : Lossy
Stream size : 1.01 GiB (11%)
Language : English
Default : No
Forced : No

Text #1
ID : 4
Format : VobSub
Muxing mode : zlib
Codec ID : S_VOBSUB
Codec ID/Info : The same subtitle format used on DVDs
Title : Esp 3D
Language : Spanish
Default : No
Forced : No

Text #2
ID : 5
Format : UTF-8
Codec ID : S_TEXT/UTF8
Codec ID/Info : UTF-8 Plain Text
Title : Esp 2D
Language : Spanish
Default : No
Forced : No

Text #3
ID : 6
Format : VobSub
Muxing mode : zlib
Codec ID : S_VOBSUB
Codec ID/Info : The same subtitle format used on DVDs
Title : Eng 3D
Language : English
Default : No
Forced : No

Text #4
ID : 7
Format : UTF-8
Codec ID : S_TEXT/UTF8
Codec ID/Info : UTF-8 Plain Text
Title : Eng 2D
Language : English
Default : No
Forced : No

Text #5
ID : 8
Format : VobSub
Muxing mode : zlib
Codec ID : S_VOBSUB
Codec ID/Info : The same subtitle format used on DVDs
Title : Eng 3D SDH
Language : English
Default : No
Forced : No

Text #6
ID : 9
Format : UTF-8
Codec ID : S_TEXT/UTF8
Codec ID/Info : UTF-8 Plain Text
Title : Eng 2D SDH
Language : English
Default : No
Forced : No

Menu
00:00:00.000 : en:00:00:00.000
00:05:52.143 : en:00:05:52.143
00:11:53.296 : en:00:11:53.296
00:15:21.337 : en:00:15:21.337
00:20:22.805 : en:00:20:22.805
00:27:08.502 : en:00:27:08.502
00:32:25.944 : en:00:32:25.944
00:36:26.518 : en:00:36:26.518
00:41:45.920 : en:00:41:45.920
00:45:45.284 : en:00:45:45.284
00:51:57.281 : en:00:51:57.281
00:56:00.107 : en:00:56:00.107
01:02:03.887 : en:01:02:03.887
01:07:26.209 : en:01:07:26.209
01:11:27.867 : en:01:11:27.867
01:16:27.875 : en:01:16:27.875
01:22:05.671 : en:01:22:05.671
01:25:30.375 : en:01:25:30.375
01:27:33.248 : en:01:27:33.248
01:30:00.687 : en:01:30:00.687

Capturas

Uploaded.to – Easybytez – Tusfiles – MEGA – dl.Free – UptoBox 98%

Enlaces de 251 Mb Intercambiables

UPLOADED

Código:

h25e4717
vc42mxtm
sxmivm2c
4jibi8mk
qgzdyeqz
ke64infk
ae604l72
mwpbxv5b
2sx6yfmy
5agm29pj
fh0k24rs
8ba710kr
pzd71di0
5r3o4dn2
flzw5cjm
4s2e557g
v9mwkuvy
o9pwnoch
yelnx2lw
h5onbbse
ocr6tqgq
3gul2pyj
zshhrxml
w2cgxkro
qo9pyte8
jvrsaec8
b1txd7j2
p34okkl9
sh8pdoqo
lkhof8zi
qgm0qq77
z5ang0lm
be1ik7mb
r99zxwxo
1xauc213
cl4tf1ke
1yx9zbwc
faqc2fhd
qp5pn6an
ma7qkc57
pmvd2ze1
e6u5zkps

EASYBITEZ

TUSFILES a falta del primer archivo

MEGA – DLFREE y UPTOBOX a falta de los 2 primeros Archivos

Si quieres la version Castellano pincha en el siguiente enlace

http://pordescargadirecta.com/showthread.php?t=906638