Descrizione:
Il 24 novembre del 2014 verrà rilasciata la 40th Anniversary Theatre Edition dell’album. War Child verrà riproposto in un box set con 2 CD, 2 DVD e, separatamente, il vinile o il CD singolo, contenenti tutti i brani remixati da Steven Wilson e brani extra del 1973/1974, nonché 10 brani orchestrali (di cui 9 inediti) composti per la colonna sonora del potenziale film, mai realizzato, tratto dal disco.

Title: Jethro Tull – WarChild The 40th Anniversary Theatre Edition 1974
Year: 2014
Genre: Rock
Quality: DVD9
Format: DVD Video
Video codec: MPEG2
Audio codec: PCM, DTS, AC-3
Video: MPEG-2 NTSC / 2000 Kbps / 720*480p / 29.970 fps / 16:9
Audio: DTS 5.1 / 48 kHz / 1509 kbps / 24-bit
Audio2: Dolby Digital 5.1 48 kHz / 448 Kbps / 16-bit
Audio3: LPCM 2.0 / 96 kHz / 4608 kbps / 24-bit

Tracklist:
The Steven Wilson Mixes (5.1 Surround & 96/24 LPCM Stereo)
1-1 WarChild
1-2 Queen And Country
1-3 Ladies
1-4 Back-Door Angels
1-5 Sealion
1-6 Skating Away On The Thin Ice Of The New Day
1-7 Bungle In The Jungle
1-8 Only Solitaire
1-9 The Third Hoorah
1-10 Two Fingers

Original 1974 Album Mix
1-11 WarChild
1-12 Queen And Country
1-13 Ladies
1-14 Back-Door Angels
1-15 Sealion
1-16 Skating Away On The Thin Ice Of The New Day
1-17 Bungle In The Jungle
1-18 Only Solitaire
1-19 The Third Hoorah
1-20 Two Fingers

Original 1974 Quad LP & Bonus Tracks
1-21 WarChild
1-22 Queen And Country
1-23 Ladies
1-24 Back-Door Angels
1-25 Sealion
1-26 Skating Away On The Thin Ice Of The New Day
1-27 Bungle In The Jungle
1-28 Only Solitaire
1-29 The Third Hoorah
1-30 Two Fingers
1-31 Glory Row
1-32 March, The Mad Scientist
1-33 Montreux Press Conference & Cheque Presentation 11th January 1974
1-34 The Third Hoorah- Promo Footage
The Second Act – Associated Recordings

The Steven Wilson Mixes (5.1 Surround & 96/24 LPCM Stereo)
2-1 Paradise Steakhouse
2-2 Saturation
2-3 Good Godmother
2-4 Sealion 2
2-5 Quartet
2-6 WarChild 2
2-7 Tomorrow Was Today
2-8 Glory Row
2-9 March, The Mad Scientist
2-10 Rainbow Blues
2-11 Pan Dance
2-12 The Orchestral WarChild Theme
2-13 The Third Hoorah – Orchestral Version
2-14 Mime Sequence
2-15 Field Dance – Conway Hall Version

Original 1974 Recordings (Mixed by Robin Black)
2-16 Waltz Of The Angels – Conway Hall Version
2-17 The Beach (Part 1) – Morgan Master Recordings
2-18 The Beach (Part 2) – Morgan Master Recordings
2-19 Waltz Of The Angels – Morgan Demo Recordings
2-20 The Beach – Morgan Demo Recordings
2-21 Field Dance – Morgan Demo Recordings {CVAL_traks}

DVD Info Report:

Spoiler

General
Complete name : Jethro Tull – WarChild The 40th Anniversary Theatre Edition (1974-2014)\JETHRO_TULL_WAR_CHILD_D1\VIDEO_TS\VTS_02_1.V OB
Format : MPEG-PS
File size : 1 024 MiB
Duration : 16mn 20s
Overall bit rate : 8 762 Kbps

Video
ID : 224 (0xE0)
Format : MPEG Video
Format version : Version 2
Format profile : Main@Main
Format settings, BVOP : No
Format settings, Matrix : Custom
Format settings, GOP : Variable
Duration : 16mn 20s
Bit rate : 5 606 Kbps
Maximum bit rate : 2 000 Kbps
Width : 720 pixels
Height : 480 pixels
Display aspect ratio : 16:9
Frame rate : 29.970 fps
Standard : NTSC
Color space : YUV
Chroma subsampling : 4:2:0
Bit depth : 8 bits
Scan type : Progressive
Scan order : Bottom Field First
Compression mode : Lossy
Bits/(Pixel*Frame) : 0.541
Time code of first frame : 00:00:00;00
Time code source : Group of pictures header
Stream size : 655 MiB (64%)

Audio #1
ID : 189 (0xBD)-130 (0x82)
Format : AC-3
Format/Info : Audio Coding 3
Mode extension : CM (complete main)
Format settings, Endianness : Big
Muxing mode : DVD-Video
Duration : 16mn 20s
Bit rate mode : Constant
Bit rate : 448 Kbps
Channel(s) : 6 channels
Channel positions : Front: L C R, Side: L R, LFE
Sampling rate : 48.0 KHz
Bit depth : 16 bits
Compression mode : Lossy
Stream size : 52.3 MiB (5%)

Audio #2
ID : 189 (0xBD)-137 (0x89)
Format : DTS
Format/Info : Digital Theater Systems
Format profile : 96/24 / Core
Mode : 16
Format settings, Endianness : Big
Muxing mode : DVD-Video
Duration : 16mn 20s
Bit rate mode : Constant
Bit rate : 1 510 Kbps
Channel(s) : 6 channels
Channel positions : Front: L C R, Side: L R, LFE
Sampling rate : 96.0 KHz / 48.0 KHz
Bit depth : 24 bits
Compression mode : Lossy
Stream size : 176 MiB (17%)

Audio #3
ID : 189 (0xBD)-160 (0xA0)
Format : PCM
Format settings, Endianness : Big
Format settings, Sign : Signed
Muxing mode : DVD-Video
Duration : 16mn 20s
Bit rate mode : Constant
Bit rate : 1 024 Kbps
Channel(s) : 2 channels
Sampling rate : 32.0 KHz
Bit depth : 24 bits
Stream size : 120 MiB (12%)

Menu

Screen:


http://linkcrypt.ws/dir/9chdx1k8q44fy69


http://ncrypt.in/folder-n8ZDevGG

Ricordo di eseguire l’estrazione con Winrar 5
I Remember To Extract With Winrar 5